<?xml version="1.0" standalone="no"?>
<!DOCTYPE svg PUBLIC "-//W3C//DTD SVG 1.1//EN" "http://www.w3.org/Graphics/SVG/1.1/DTD/svg11.dtd" >
<svg>
<metadata>
Created by FontForge 20090914 at Mon May  3 00:30:56 2021
 By www-data
Copyright (c) 2019 by Daimler AG. All rights reserved.
</metadata>
<defs>
<font id="MBCorpoATitleCondOffice-Regular" horiz-adv-x="440" >
  <font-face 
    font-family="MB Corpo A Title Cond Office"
    font-weight="400"
    font-stretch="condensed"
    units-per-em="1000"
    panose-1="2 2 5 6 8 0 0 0 0 3"
    ascent="824"
    descent="-176"
    x-height="468"
    cap-height="670"
    bbox="-605.002 -183.002 947 987"
    underline-thickness="40"
    underline-position="-110"
    unicode-range="U+000D-U+FEFF"
  />
<missing-glyph horiz-adv-x="533" 
d="M457 795v-923l-8 -8h-365l-8 8v923l8 8h365zM92 787v-907h349v907h-349z" />
    <glyph glyph-name=".notdef" horiz-adv-x="533" 
d="M457 795v-923l-8 -8h-365l-8 8v923l8 8h365zM92 787v-907h349v907h-349z" />
    <glyph glyph-name="nonmarkingreturn" unicode="&#xd;" horiz-adv-x="184" 
 />
    <glyph glyph-name="space" unicode=" " horiz-adv-x="184" 
 />
    <glyph glyph-name="exclam" unicode="!" horiz-adv-x="214" 
d="M75.5 664.5c7.66699 9 18.167 13.5 31.5 13.5s23.833 -4.5 31.5 -13.5s11.167 -21.167 10.5 -36.5l-29 -436h-26l-29 436c-0.666992 15.333 2.83301 27.5 10.5 36.5zM71 4.5c-9.33301 9.66699 -14 21.834 -14 36.501s4.66699 26.834 14 36.501s21.333 14.5 36 14.5
s26.667 -4.83301 36 -14.5s14 -21.834 14 -36.501s-4.66699 -26.834 -14 -36.501s-21.333 -14.5 -36 -14.5s-26.667 4.83301 -36 14.5z" />
    <glyph glyph-name="quotedbl" unicode="&#x22;" horiz-adv-x="283" 
d="M85.5 667c7 -7.33301 10.5 -18 10.5 -32c0 -4 -0.666992 -10 -2 -18l-26 -160h-20l-28 160c-1.33301 8 -2 14 -2 18c0 14 3.5 24.667 10.5 32s16.5 11 28.5 11s21.5 -3.66699 28.5 -11zM220.5 667c7 -7.33301 10.5 -18 10.5 -32c0 -4 -0.666992 -10 -2 -18l-26 -160h-20
l-28 160c-1.33301 8 -2 14 -2 18c0 14 3.5 24.667 10.5 32s16.5 11 28.5 11s21.5 -3.66699 28.5 -11z" />
    <glyph glyph-name="numbersign" unicode="#" horiz-adv-x="433" 
d="M320 436l-20 -190h93v-29h-96l-23 -217h-30l22 217h-125l-22 -217h-30l22 217h-85v29h88l20 190h-93v29h96l21 203h30l-21 -203h125l21 203h31l-21 -203h84v-29h-87zM289 436h-125l-20 -190h125z" />
    <glyph glyph-name="dollar" unicode="$" 
d="M349.5 58c-29.667 -33.333 -67.1641 -52.332 -112.497 -56.999v-89h-30v88c-24.667 1.33301 -47.5 7.33301 -68.5 18s-37.833 24 -50.5 40l-24 -62h-14v218h20c8 -60 23 -105.833 45 -137.5s52.667 -48.5 92 -50.5v282l-44 26c-34.667 20 -60.834 43.667 -78.501 71
s-26.5 61.666 -26.5 102.999c0 32 7 60 21 84s32.333 42.5 55 55.5s47 19.833 73 20.5v81h30v-83c20 -4 38.167 -11.667 54.5 -23s29.166 -24.666 38.499 -39.999l19 65h14v-185h-18c-6.66699 42.667 -19.167 78 -37.5 106s-41.833 45 -70.5 51v-256l49 -29
c35.333 -20.667 62.166 -44.834 80.499 -72.501s27.5 -62.5 27.5 -104.5c0 -46.667 -14.833 -86.667 -44.5 -120zM207.003 402.001l-0.000976562 240.001c-28.667 -2 -51 -12.833 -67 -32.5s-24 -45.5 -24 -77.5c0 -27.333 7.33301 -51.333 22 -72
s36.334 -39.334 65.001 -56.001zM307.002 62.502c16.667 19.667 25 45.501 25 77.501c0 35.333 -8 64.666 -24 87.999s-39.667 44.333 -71 63v-264c30 4 53.333 15.833 70 35.5z" />
    <glyph glyph-name="percent" unicode="%" horiz-adv-x="631" 
d="M478 668h39l-361 -668h-38zM87 335.5c-19.333 14.333 -34.666 35.166 -45.999 62.499s-17 60 -17 98s5.66699 70.667 17 98s26.666 48.166 45.999 62.499s40.666 21.5 63.999 21.5s44.666 -7.16699 63.999 -21.5s34.666 -35.166 45.999 -62.499s17 -60 17 -98
s-5.66699 -70.667 -17 -98s-26.666 -48.166 -45.999 -62.499s-40.666 -21.5 -63.999 -21.5s-44.666 7.16699 -63.999 21.5zM199.5 371c11 24 16.5 65.667 16.5 125s-5.5 101 -16.5 125s-27.167 36 -48.5 36s-37.5 -12 -48.5 -36s-16.5 -65.667 -16.5 -125
s5.5 -101 16.5 -125s27.167 -36 48.5 -36s37.5 12 48.5 36zM416 11.5c-19.333 14.333 -34.666 35.166 -45.999 62.499s-17 60 -17 98s5.66699 70.667 17 98s26.666 48.166 45.999 62.499s40.666 21.5 63.999 21.5s44.666 -7.16699 63.999 -21.5
s34.666 -35.166 45.999 -62.499s17 -60 17 -98s-5.66699 -70.667 -17 -98s-26.666 -48.166 -45.999 -62.499s-40.666 -21.5 -63.999 -21.5s-44.666 7.16699 -63.999 21.5zM528.5 47c11 24 16.5 65.667 16.5 125s-5.5 101 -16.5 125s-27.167 36 -48.5 36s-37.5 -12 -48.5 -36
s-16.5 -65.667 -16.5 -125s5.5 -101 16.5 -125s27.167 -36 48.5 -36s37.5 12 48.5 36z" />
    <glyph glyph-name="ampersand" unicode="&#x26;" horiz-adv-x="516" 
d="M445.5 36.5c11 -8.33301 26.499 -13.832 46.499 -16.499v-22c-30 4 -52.333 6 -67 6c-18 0 -36 -1 -54 -3l-36 60c-37.333 -47.333 -81.666 -71 -132.999 -71c-35.333 0 -65.833 7.5 -91.5 22.5s-45 34.667 -58 59s-19.5 50.5 -19.5 78.5c0 42 11.333 79.167 34 111.5
s54.667 62.833 96 91.5l-16 26c-19.333 32.667 -34 60.834 -44 84.501s-15 47.5 -15 71.5c0 27.333 6.16699 51.833 18.5 73.5s29.166 38.667 50.499 51s45 18.5 71 18.5c34.667 0 64.167 -12.167 88.5 -36.5s36.5 -56.5 36.5 -96.5
c0 -36.667 -9.16699 -67.834 -27.5 -93.501s-47.833 -53.5 -88.5 -83.5l128 -213c16 39.333 25.667 81.666 29 126.999c2 22 -2 36.833 -12 44.5s-24.667 12.834 -44 15.501v22c27.333 -4 52 -6 74 -6c22.667 0 48 2 76 6v-22c-21.333 -2 -37.166 -6.83301 -47.499 -14.5
s-16.5 -22.834 -18.5 -45.501c-4.66699 -58 -18 -109.667 -40 -155l22 -36c16.667 -28 30.5 -46.167 41.5 -54.5zM174.999 627.001c-12.667 -16.667 -18.998 -40.666 -18.998 -71.999c0 -23.333 4.5 -45.833 13.5 -67.5s22.5 -46.834 40.5 -75.501l13 -22
c25.333 20.667 43 44 53 70s15 56.333 15 91c0 30 -6.33301 54.333 -19 73s-28.334 28 -47.001 28c-20.667 0 -37.334 -8.33301 -50.001 -25zM321.001 85.002l-145.001 244.999c-25.333 -25.333 -43 -52.166 -53 -80.499s-15 -59.5 -15 -93.5
c0 -38.667 9.66699 -70.667 29 -96s46 -38 80 -38c38.667 0 73.334 21 104.001 63z" />
    <glyph glyph-name="quotesingle" unicode="'" horiz-adv-x="148" 
d="M102.5 667c7 -7.33301 10.5 -18 10.5 -32c0 -4 -0.666992 -10 -2 -18l-26 -160h-20l-28 160c-1.33301 8 -2 14 -2 18c0 14 3.5 24.667 10.5 32s16.5 11 28.5 11s21.5 -3.66699 28.5 -11z" />
    <glyph glyph-name="parenleft" unicode="(" horiz-adv-x="245" 
d="M81 515.5c30.667 73.667 77.667 142.167 141 205.5l17 -12c-84.667 -112.667 -127 -259.334 -127 -440.001s42.333 -327.334 127 -440.001l-17 -12c-63.333 62.667 -110.333 130.834 -141 204.501s-46 156.167 -46 247.5c0 90.667 15.333 172.834 46 246.501z" />
    <glyph glyph-name="parenright" unicode=")" horiz-adv-x="245" 
d="M164 21.5c-30.667 -73.667 -77.667 -141.834 -141 -204.501l-17 12c84.667 112.667 127 259.334 127 440.001s-42.333 327.334 -127 440.001l17 12c63.333 -63.333 110.333 -131.833 141 -205.5s46 -155.834 46 -246.501c0 -91.333 -15.333 -173.833 -46 -247.5z" />
    <glyph glyph-name="asterisk" unicode="*" horiz-adv-x="336" 
d="M128.5 429.5c-9.66699 -15 -19.4971 -22.501 -29.4971 -22.501c-7.33301 0 -14.166 2.83301 -20.499 8.5s-9.5 12.834 -9.5 21.501s5.5 18.834 16.5 30.501s34.167 31.834 69.5 60.501c-36 2 -62.5 4.33301 -79.5 7s-28.667 6.33398 -35 11.001s-9.5 11.667 -9.5 21
s2.5 16.833 7.5 22.5s11.5 8.5 19.5 8.5c6.66699 0 16.167 -3.33301 28.5 -10s37.166 -21.667 74.499 -45c-16 58.667 -24 92.667 -24 102s2.5 17.166 7.5 23.499s12.833 9.5 23.5 9.5s18.5 -3.16699 23.5 -9.5s7.5 -14.166 7.5 -23.499s-8 -43.333 -24 -102
c37.333 23.333 62.166 38.333 74.499 45s21.833 10 28.5 10c8 0 14.5 -2.83301 19.5 -8.5s7.5 -13.167 7.5 -22.5s-3.16699 -16.166 -9.5 -20.499s-17.833 -7.83301 -34.5 -10.5s-43.334 -5.33398 -80.001 -8.00098c35.333 -28.667 58.5 -48.834 69.5 -60.501
s16.5 -21.834 16.5 -30.501s-3.16699 -15.834 -9.5 -21.501s-13.166 -8.5 -20.499 -8.5c-10 0 -19.833 7.5 -29.5 22.5s-22.834 44.5 -39.501 88.5c-16.667 -44 -29.834 -73.5 -39.501 -88.5z" />
    <glyph glyph-name="plus" unicode="+" 
d="M393 283h-157v-177h-32v177h-157v30h157v176h32v-176h157v-30z" />
    <glyph glyph-name="comma" unicode="," horiz-adv-x="186" 
d="M130.5 71c11.667 -13.333 17.5 -35.333 17.5 -66c0 -25.333 -4.83301 -48.666 -14.5 -69.999s-21.167 -39 -34.5 -53s-25.666 -23.667 -36.999 -29l-12 18c19.333 10.667 36.166 28.167 50.499 52.5s21.5 49.5 21.5 75.5v2c-9.33301 -7.33301 -20.333 -11 -33 -11
c-14.667 0 -26.667 4.66699 -36 14s-14 21.333 -14 36c0 15.333 4.66699 27.666 14 36.999s21.333 14 36 14c16 0 29.833 -6.66699 41.5 -20z" />
    <glyph glyph-name="hyphen" unicode="-" horiz-adv-x="305" 
d="M253 298v-40h-201v40h201z" />
    <glyph glyph-name="period" unicode="." horiz-adv-x="176" 
d="M52 4.5c-9.33301 9.66699 -14 21.834 -14 36.501s4.66699 26.834 14 36.501s21.333 14.5 36 14.5s26.667 -4.83301 36 -14.5s14 -21.834 14 -36.501s-4.66699 -26.834 -14 -36.501s-21.333 -14.5 -36 -14.5s-26.667 4.83301 -36 14.5z" />
    <glyph glyph-name="slash" unicode="/" horiz-adv-x="315" 
d="M295 668l-242 -763h-34l242 763h34z" />
    <glyph glyph-name="zero" unicode="0" 
d="M316 637.5c27.333 -27 48.5 -66.5 63.5 -118.5s22.5 -113.667 22.5 -185c0 -72 -7.5 -133.833 -22.5 -185.5s-36.167 -91 -63.5 -118s-59.333 -40.5 -96 -40.5s-68.667 13.5 -96 40.5s-48.5 66.333 -63.5 118s-22.5 113.5 -22.5 185.5c0 71.333 7.5 132.833 22.5 184.5
s36.167 91.167 63.5 118.5s59.333 41 96 41s68.667 -13.5 96 -40.5zM138 571c-15.333 -54 -23 -132.999 -23 -236.999c0 -106.667 7.16699 -186.334 21.5 -239.001s42.166 -79 83.499 -79c29.333 0 51.5 12.833 66.5 38.5s25.167 61 30.5 106s8 102.833 8 173.5
c0 71.333 -2.66699 129.5 -8 174.5s-15.5 80.167 -30.5 105.5s-37.167 38 -66.5 38c-39.333 0 -66.666 -27 -81.999 -81z" />
    <glyph glyph-name="one" unicode="1" 
d="M277.5 48c4.33301 -9.33301 13.333 -15.835 27 -19.502s37.5 -6.5 71.5 -8.5v-22c-64.667 4 -111.667 6 -141 6c-30 0 -77.333 -2 -142 -6v22c34 2 57.833 4.83301 71.5 8.5s22.667 10.167 27 19.5s6.5 25.333 6.5 48v461c-30 -10.667 -67.333 -17 -112 -19v22
c46 2.66699 83.167 14.834 111.5 36.501s45.833 48.834 52.5 81.501h21v-582c0 -22.667 2.16699 -38.667 6.5 -48z" />
    <glyph glyph-name="two" unicode="2" 
d="M392 154l-21.001 -153.999h-327v48c62.667 60 112 114.167 148 162.5s61.833 95.166 77.5 140.499s23.5 93.333 23.5 144c0 47.333 -8.16699 85.333 -24.5 114s-42.166 43 -77.499 43c-32 0 -58.333 -12.667 -79 -38s-31 -60.333 -31 -105c0 -11.333 0.333008 -20 1 -26
h-25c-0.666992 6 -1 15 -1 27c0 52 13.5 93 40.5 123s62.833 45 107.5 45c49.333 0 89.333 -16.833 120 -50.5s46 -77.167 46 -130.5c0 -58.667 -12 -112.334 -36 -161.001s-54.333 -92.167 -91 -130.5s-85.667 -84.166 -147 -137.499h177c22 0 38.667 2 50 6
s20.833 11.833 28.5 23.5s15.167 30.5 22.5 56.5h18z" />
    <glyph glyph-name="three" unicode="3" 
d="M345 302.5c28 -31 41.999 -71.832 41.999 -122.499c0 -39.333 -8.5 -73.333 -25.5 -102s-39.833 -50.5 -68.5 -65.5s-59.667 -22.5 -93 -22.5c-44.667 0 -81.667 15 -111 45s-44 69.667 -44 119h25c0 -26 5.5 -49.333 16.5 -70s25.5 -36.667 43.5 -48s37.667 -17 59 -17
c39.333 0 69.333 15.167 90 45.5s31 70.166 31 119.499c0 50 -10.833 89.667 -32.5 119s-53.834 44 -96.501 44h-23v25h23c37.333 0 64.833 14.5 82.5 43.5s26.5 63.167 26.5 102.5c0 36 -8 67.333 -24 94s-41.667 40 -77 40c-31.333 0 -56.166 -12.5 -74.499 -37.5
s-27.5 -54.5 -27.5 -88.5h-25c0 42 12.333 77.833 37 107.5s59.667 44.5 105 44.5c48 0 87 -14.5 117 -43.5s45 -65.833 45 -110.5c0 -40 -12.167 -74.167 -36.5 -102.5s-54.166 -47.833 -89.499 -58.5c42 -9.33301 77 -29.5 105 -60.5z" />
    <glyph glyph-name="four" unicode="4" 
d="M320 188l0.000976562 -82c0 -25.333 1.66699 -43.333 5 -54s9.16602 -18.167 17.499 -22.5s22.5 -7.5 42.5 -9.5v-22c-24.667 2 -44.5 3.5 -59.5 4.5s-29.5 1.5 -43.5 1.5h-6c-24 0 -57.667 -2 -101 -6v22c22 2 37.667 5 47 9s15.833 11.5 19.5 22.5s5.5 29.167 5.5 54.5
v82h-221v22l227 458h67v-451h86v-29h-86zM247.001 217v380l-189 -380h189z" />
    <glyph glyph-name="five" unicode="5" 
d="M301.5 398.5c26.333 -16.333 47.332 -39.999 62.999 -70.999s23.5 -66.833 23.5 -107.5c0 -46 -8 -86.5 -24 -121.5s-38.167 -61.833 -66.5 -80.5s-60.166 -28 -95.499 -28c-46 0 -83.167 15.167 -111.5 45.5s-42.5 69.833 -42.5 118.5h25c0 -38 11 -70 33 -96
s50.333 -39 85 -39c44 0 75 17.833 93 53.5s27 85.167 27 148.5c0 53.333 -8.33301 96 -25 128s-43.667 48 -81 48c-26.667 0 -48.667 -7.83301 -66 -23.5s-32.666 -37.834 -45.999 -66.501l-22 5l47 356h249l-7 -68h-224l-31 -236c11.333 17.333 26.166 31.5 44.499 42.5
s40.5 16.5 66.5 16.5c30.667 0 59.167 -8.16699 85.5 -24.5z" />
    <glyph glyph-name="six" unicode="6" 
d="M323.5 397c24.333 -18 43.667 -43.166 58 -75.499s21.5 -69.5 21.5 -111.5c0 -40.667 -7.83301 -77.834 -23.5 -111.501s-36.667 -60.167 -63 -79.5s-55.166 -29 -86.499 -29c-58.667 0 -104 26 -136 78s-48 132 -48 240c0 78 8.33301 144.833 25 200.5
s40 97.834 70 126.501s64.667 43 104 43c41.333 0 74.166 -13.167 98.499 -39.5s37.166 -63.833 38.499 -112.5h-25c-2.66699 41.333 -13.167 72.666 -31.5 93.999s-41.833 32 -70.5 32c-47.333 0 -81.166 -26.5 -101.499 -79.5s-31.5 -131.167 -33.5 -234.5
c10.667 26.667 26.334 47.667 47.001 63s46 23 76 23c29.333 0 56.166 -9 80.499 -27zM301.501 70.001c17.667 36 26.5 81.667 26.5 137c0 54.667 -8.83301 99.667 -26.5 135s-43.167 53 -76.5 53s-58.833 -17.667 -76.5 -53s-26.5 -80.333 -26.5 -135
c0 -55.333 8.83301 -101 26.5 -137s43.167 -54 76.5 -54s58.833 18 76.5 54z" />
    <glyph glyph-name="seven" unicode="7" 
d="M406 668l0.000976562 -48.002c-34.667 -30.667 -66.167 -76.667 -94.5 -138s-50.833 -131 -67.5 -209s-25 -155.667 -25 -233c0 -18 0.333008 -31.333 1 -40h-82v22c0 73.333 12.833 150.833 38.5 232.5s56 154.334 91 218.001s65.5 106.167 91.5 127.5h-210
c-20 0 -35 -1.66699 -45 -5s-18.333 -10.166 -25 -20.499s-13.334 -26.5 -20.001 -48.5h-18l17 142h348z" />
    <glyph glyph-name="eight" unicode="8" 
d="M369.5 259c19 -28 28.499 -61.665 28.499 -100.998c0 -30.667 -8.16699 -59 -24.5 -85s-38.166 -46.333 -65.499 -61s-57 -22 -89 -22c-34 0 -64.333 6.66699 -91 20s-47.667 32 -63 56s-23 51.333 -23 82c0 36.667 11.5 71 34.5 103s52.833 60 89.5 84
c-32.667 24.667 -57.834 51 -75.501 79s-26.5 63 -26.5 105c0 30.667 6.83301 58.167 20.5 82.5s32.334 43.166 56.001 56.499s49.167 20 76.5 20c30 0 57.167 -7 81.5 -21s43.333 -33 57 -57s20.5 -49.667 20.5 -77c0 -38 -9.83301 -70.833 -29.5 -98.5
s-45.5 -51.834 -77.5 -72.501l16 -11c37.333 -26.667 65.5 -54 84.5 -82zM153.499 618.002c-17 -22.667 -25.5 -49 -25.5 -79c0 -34 8.5 -63.167 25.5 -87.5s40.167 -46.833 69.5 -67.5l24 -16c20.667 14.667 38.167 35.167 52.5 61.5s21.5 57.5 21.5 93.5s-9 66.5 -27 91.5
s-42.667 37.5 -74 37.5c-27.333 0 -49.5 -11.333 -66.5 -34zM300.499 49.502c21.667 22.333 32.5 50.1689 32.5 83.502c0 32.667 -8.16699 60.667 -24.5 84s-39.833 45.666 -70.5 66.999l-51 36c-28 -21.333 -49.667 -47.333 -65 -78s-23 -60.334 -23 -89.001
c0 -38 9.83301 -70.333 29.5 -97s49.167 -40 88.5 -40c34 0 61.833 11.167 83.5 33.5z" />
    <glyph glyph-name="nine" unicode="9" 
d="M303.5 648.5c27.667 -19.667 49.5 -48 65.5 -85s24 -80.167 24 -129.5c0 -77.333 -14.333 -147.333 -43 -210s-67 -114.334 -115 -155.001s-100.667 -69 -158 -85l-7 24c68 22 121.333 60.833 160 116.5s66.667 123.834 84 204.501
c-10.667 -22 -25.834 -39.333 -45.501 -52s-43.167 -19 -70.5 -19c-29.333 0 -56.166 8.66699 -80.499 26s-43.666 41.666 -57.999 72.999s-21.5 67.333 -21.5 108c0 39.333 7.83301 75.333 23.5 108s36.667 58.334 63 77.001s55.166 28 86.499 28
c34 0 64.833 -9.83301 92.5 -29.5zM292.5 338c17.667 34 26.5 77.333 26.5 130c0 54 -8.83301 98.167 -26.5 132.5s-43.167 51.5 -76.5 51.5s-58.833 -17.167 -76.5 -51.5s-26.5 -78.5 -26.5 -132.5c0 -52.667 8.83301 -96 26.5 -130s43.167 -51 76.5 -51s58.833 17 76.5 51
z" />
    <glyph glyph-name="colon" unicode=":" horiz-adv-x="204" 
d="M66 390.5c-9.33301 9.66699 -14 21.834 -14 36.501s4.66699 26.834 14 36.501s21.333 14.5 36 14.5s26.667 -4.83301 36 -14.5s14 -21.834 14 -36.501s-4.66699 -26.834 -14 -36.501s-21.333 -14.5 -36 -14.5s-26.667 4.83301 -36 14.5zM66 4.5
c-9.33301 9.66699 -14 21.834 -14 36.501s4.66699 26.834 14 36.501s21.333 14.5 36 14.5s26.667 -4.83301 36 -14.5s14 -21.834 14 -36.501s-4.66699 -26.834 -14 -36.501s-21.333 -14.5 -36 -14.5s-26.667 4.83301 -36 14.5z" />
    <glyph glyph-name="semicolon" unicode=";" horiz-adv-x="216" 
d="M145.5 71c11.667 -13.333 17.5 -35.333 17.5 -66c0 -25.333 -4.83301 -48.666 -14.5 -69.999s-21.167 -39 -34.5 -53s-25.666 -23.667 -36.999 -29l-12 18c19.333 10.667 36.166 28.167 50.499 52.5s21.5 49.5 21.5 75.5v2c-9.33301 -7.33301 -20.333 -11 -33 -11
c-14.667 0 -26.667 4.66699 -36 14s-14 21.333 -14 36c0 15.333 4.66699 27.666 14 36.999s21.333 14 36 14c16 0 29.833 -6.66699 41.5 -20zM68 390.5c-9.33301 9.66699 -14 21.834 -14 36.501s4.66699 26.834 14 36.501s21.333 14.5 36 14.5s26.667 -4.83301 36 -14.5
s14 -21.834 14 -36.501s-4.66699 -26.834 -14 -36.501s-21.333 -14.5 -36 -14.5s-26.667 4.83301 -36 14.5z" />
    <glyph glyph-name="less" unicode="&#x3c;" 
d="M361 448l-259 -150l259 -149v-35l-295 171v27l295 170v-34z" />
    <glyph glyph-name="equal" unicode="=" 
d="M52 392h336v-30h-336v30zM52 239h336v-30h-336v30z" />
    <glyph glyph-name="greater" unicode="&#x3e;" 
d="M374 312v-27l-295 -171v35l259 149l-259 150v34z" />
    <glyph glyph-name="question" unicode="?" horiz-adv-x="337" 
d="M271 633c27.333 -30 40.999 -67.0029 40.999 -111.003c0 -53.333 -14.5 -96.666 -43.5 -129.999s-66.5 -56.666 -112.5 -69.999v-130h-27v148c36.667 12 63.667 32.167 81 60.5s26 67.5 26 117.5c0 37.333 -7.16699 69 -21.5 95s-38.166 39 -71.499 39
c-28 0 -50.833 -11.167 -68.5 -33.5s-26.5 -51.166 -26.5 -86.499h-25c0 44 11.667 79.333 35 106s56.333 40 99 40c48.667 0 86.667 -15 114 -45zM178.999 77.4971c9.33301 -9.66699 14 -21.834 14 -36.501s-4.66699 -26.834 -14 -36.501s-21.333 -14.5 -36 -14.5
s-26.667 4.83301 -36 14.5s-14 21.834 -14 36.501s4.66699 26.834 14 36.501s21.333 14.5 36 14.5s26.667 -4.83301 36 -14.5z" />
    <glyph glyph-name="at" unicode="@" horiz-adv-x="752" 
d="M577 615c44.667 -25.333 78.8281 -60.6689 102.495 -106.002s35.5 -97 35.5 -155c0 -14.667 -0.333008 -25.667 -1 -33c-4.66699 -58.667 -16.834 -109.167 -36.501 -151.5s-44.334 -74.333 -74.001 -96s-61.167 -32.5 -94.5 -32.5c-52.667 0 -78.334 28.333 -77.001 85
c-13.333 -26.667 -29.333 -47.5 -48 -62.5s-39 -22.5 -61 -22.5c-32 0 -57.833 13 -77.5 39s-29.5 62.333 -29.5 109c0 16 1.66699 35.667 5 59c7.33301 46.667 19.833 86.667 37.5 120s38.334 58.5 62.001 75.5s47.834 25.5 72.501 25.5c40 0 66.333 -23.667 79 -71l9 61
h64l-43 -269c-6 -36 -9 -62 -9 -78c0 -14 2.33301 -24.5 7 -31.5s12.334 -10.5 23.001 -10.5c21.333 0 43 9 65 27s41.167 45.5 57.5 82.5s26.5 83.167 30.5 138.5c0.666992 6.66699 1 17 1 31c0 55.333 -10.167 103.833 -30.5 145.5s-50 74.167 -89 97.5
s-85.833 35 -140.5 35c-62 0 -117.833 -17 -167.5 -51s-89.167 -80.333 -118.5 -139s-46.666 -123.334 -51.999 -194.001c-0.666992 -8.66699 -1 -21 -1 -37c0 -63.333 10.833 -119.5 32.5 -168.5s53 -87.333 94 -115s90.167 -41.5 147.5 -41.5
c38.667 0 73.834 5.83301 105.501 17.5s61.834 28.834 90.501 51.501l16 -20c-32.667 -25.333 -66.167 -44.166 -100.5 -56.499s-75.166 -18.5 -122.499 -18.5c-60 0 -113.333 14.5 -160 43.5s-83 69.333 -109 121s-39 110.5 -39 176.5c0 8.66699 0.666992 21.667 2 39
c5.33301 78 25.5 148.833 60.5 212.5s80.667 113.834 137 150.501s118.5 55 186.5 55c60.667 0 113.334 -12.667 158.001 -38zM405.994 126.497c20.667 35 34.999 78.834 42.999 131.501c4 28 6 52.667 6 74c0 36.667 -5.33301 64.5 -16 83.5s-26 28.5 -46 28.5
c-23.333 0 -44.166 -16.333 -62.499 -49s-31.5 -78.334 -39.5 -137.001c-4 -30 -6 -57.333 -6 -82c0 -68 18.333 -102 55 -102c23.333 0 45.333 17.5 66 52.5z" />
    <glyph glyph-name="A" unicode="A" horiz-adv-x="497" 
d="M453 48.5c5.33301 -10.333 11.6689 -17.168 19.002 -20.501s19.333 -6 36 -8v-22c-42.667 4 -74.334 6 -95.001 6c-22 0 -57 -2 -105 -6v22c21.333 2 35.833 5 43.5 9s11.5 11.667 11.5 23c0 12.667 -3.33301 29.334 -10 50.001l-31 102h-192l-29 -102
c-6.66699 -24.667 -10 -41 -10 -49c0 -12 4 -20 12 -24s22.333 -7 43 -9v-22c-36 4 -63.333 6 -82 6c-12 0 -25.167 -0.833008 -39.5 -2.5s-23.833 -2.83398 -28.5 -3.50098v22c16.667 2 29.167 5.16699 37.5 9.5s15.166 11.833 20.499 22.5s11.333 27.334 18 50.001
l163 576h12l186 -577c8 -24.667 14.667 -42.167 20 -52.5zM313.003 231.998l-90 294l-85 -294h175z" />
    <glyph glyph-name="B" unicode="B" horiz-adv-x="488" 
d="M409.5 295c27.667 -30.667 41.5 -69.002 41.5 -115.002c0 -36 -8.33301 -67.5 -25 -94.5s-39.5 -48 -68.5 -63s-60.833 -22.5 -95.5 -22.5h-230v22c19.333 1.33301 33.333 3.83301 42 7.5s14.667 10.834 18 21.501s5 27.667 5 51v464c0 23.333 -1.66699 40.333 -5 51
s-9.33301 17.834 -18 21.501s-22.667 6.16699 -42 7.5v22h201c58 0 103.833 -14.5 137.5 -43.5s50.5 -67.833 50.5 -116.5c0 -37.333 -10.833 -69.5 -32.5 -96.5s-50.167 -46.5 -85.5 -58.5c43.333 -8 78.833 -27.333 106.5 -58zM173 639.998v-281.001h46
c40.667 0 71 12.333 91 37s30 59.334 30 104.001s-10 79.167 -30 103.5s-50.333 36.5 -91 36.5h-46zM341 67.4971c19.333 26.333 29 63.833 29 112.5c0 48 -9.66699 85.167 -29 111.5s-49 39.5 -89 39.5h-79v-263c0 -15.333 3 -25.833 9 -31.5s19.333 -8.5 40 -8.5h30
c40 0 69.667 13.167 89 39.5z" />
    <glyph glyph-name="C" unicode="C" horiz-adv-x="480" 
d="M444 227c-4 -80 -22.002 -139.504 -54.002 -178.504s-73.333 -58.5 -124 -58.5c-42.667 0 -81 13.333 -115 40s-60.667 65.834 -80 117.501s-29 113.834 -29 186.501s10 134.834 30 186.501s47.167 90.834 81.5 117.501s72.833 40 115.5 40c28 0 53 -6 75 -18
s39.667 -27.333 53 -46l22 64h14v-210h-18c-11.333 64 -28.666 110.667 -51.999 140s-54.666 44 -93.999 44c-48.667 0 -85.167 -27.667 -109.5 -83s-36.5 -133.666 -36.5 -234.999c0 -102.667 13 -179.834 39 -231.501s65.667 -77.5 119 -77.5
c36.667 0 67.667 16.333 93 49s40 83.667 44 153h26z" />
    <glyph glyph-name="D" unicode="D" horiz-adv-x="536" 
d="M367.5 626.5c39.667 -27.667 71 -66.834 94 -117.501s34.5 -109 34.5 -175s-11.5 -124.333 -34.5 -175s-54.333 -89.834 -94 -117.501s-83.5 -41.5 -131.5 -41.5h-204v22c19.333 1.33301 33.333 3.83301 42 7.5s14.667 10.834 18 21.501s5 27.667 5 51v464
c0 23.333 -1.66699 40.333 -5 51s-9.33301 17.834 -18 21.501s-22.667 6.16699 -42 7.5v22h204c48 0 91.833 -13.833 131.5 -41.5zM367.5 111c31.667 55.333 47.5 129.668 47.5 223.001s-15.833 167.666 -47.5 222.999s-78.167 83 -139.5 83h-55v-572
c0 -15.333 3 -25.833 9 -31.5s19.333 -8.5 40 -8.5h6c61.333 0 107.833 27.667 139.5 83z" />
    <glyph glyph-name="E" unicode="E" horiz-adv-x="462" 
d="M434 164l-17 -163.999h-385v22c19.333 1.33301 33.333 3.83301 42 7.5s14.667 10.834 18 21.501s5 27.667 5 51v464c0 23.333 -1.66699 40.333 -5 51s-9.33301 17.834 -18 21.501s-22.667 6.16699 -42 7.5v22h364l14 -155h-20c-6.66699 35.333 -14 61.666 -22 78.999
s-19.167 29.666 -33.5 36.999s-34.833 11 -61.5 11h-100v-280h116c16.667 0 28.167 5.5 34.5 16.5s10.166 32.5 11.499 64.5h20v-190h-20c-1.33301 31.333 -5.16602 52.666 -11.499 63.999s-17.833 17 -34.5 17h-116v-264c0 -15.333 3 -25.833 9 -31.5s19.333 -8.5 40 -8.5
h72c27.333 0 48.166 3.83301 62.499 11.5s25.333 20.5 33 38.5s15.834 46.667 24.501 86h20z" />
    <glyph glyph-name="F" unicode="F" horiz-adv-x="439" 
d="M173 640l0.00292969 -287.999h120c16.667 0 28.167 5.5 34.5 16.5s10.166 32.5 11.499 64.5h20v-190h-20c-1.33301 31.333 -5.16602 52.666 -11.499 63.999s-17.833 17 -34.5 17h-120v-218c0 -25.333 2 -43.5 6 -54.5s11.167 -18.5 21.5 -22.5s27.5 -7 51.5 -9v-22
c-48.667 4 -86.334 6 -113.001 6h-4c-14 0 -28.5 -0.5 -43.5 -1.5s-34.833 -2.5 -59.5 -4.5v22c20 2 34.167 5.16699 42.5 9.5s14.166 11.833 17.499 22.5s5 28.667 5 54v460c0 23.333 -1.66699 40.333 -5 51s-9.33301 17.834 -18 21.501s-22.667 6.16699 -42 7.5v22h369
l15 -168h-20c-6.66699 38 -14 66.667 -22 86s-19.333 33.166 -34 41.499s-35.334 12.5 -62.001 12.5h-105z" />
    <glyph glyph-name="G" unicode="G" horiz-adv-x="524" 
d="M448 304c14.667 0.666992 34.002 2.32812 58.002 4.99512v-22c-18 -2 -30.667 -5 -38 -9s-12.5 -11.5 -15.5 -22.5s-4.5 -29.167 -4.5 -54.5v-149c-26.667 -18 -54.5 -32.833 -83.5 -44.5s-56.833 -17.5 -83.5 -17.5c-46 0 -87.167 13.333 -123.5 40
s-64.833 65.834 -85.5 117.501s-31 113.834 -31 186.501s10.167 134.834 30.5 186.501s47.833 90.834 82.5 117.501s73.667 40 117 40c28 0 53.167 -5.83301 75.5 -17.5s40.5 -27.167 54.5 -46.5l22 64h14v-194h-18c-22.667 112 -72 168 -148 168
c-49.333 0 -86.5 -27.667 -111.5 -83s-37.5 -133.666 -37.5 -234.999c0 -102 13.167 -180.5 39.5 -235.5s66.166 -82.5 119.499 -82.5c32.667 0 63 8 91 24v161c0 25.333 -1.83301 43.5 -5.5 54.5s-10 18.5 -19 22.5s-24.167 7 -45.5 9v22c41.333 -4 75.666 -6 102.999 -6
c14 0 28.333 0.333008 43 1z" />
    <glyph glyph-name="H" unicode="H" horiz-adv-x="573" 
d="M498.5 638.5c-8.33301 -4.33301 -14.166 -11.833 -17.499 -22.5s-5 -28.667 -5 -54v-456c0 -25.333 1.66699 -43.333 5 -54s9.16602 -18.167 17.499 -22.5s22.5 -7.5 42.5 -9.5v-22c-24.667 2 -44.5 3.5 -59.5 4.5s-29.5 1.5 -43.5 1.5s-28.5 -0.5 -43.5 -1.5
s-34.833 -2.5 -59.5 -4.5v22c20 2 34.167 5.16699 42.5 9.5s14.166 11.833 17.499 22.5s5 28.667 5 54v225h-227v-225c0 -25.333 1.66699 -43.333 5 -54s9.16602 -18.167 17.499 -22.5s22.5 -7.5 42.5 -9.5v-22c-24.667 2 -44.5 3.5 -59.5 4.5s-29.5 1.5 -43.5 1.5
s-28.5 -0.5 -43.5 -1.5s-34.833 -2.5 -59.5 -4.5v22c20 2 34.167 5.16699 42.5 9.5s14.166 11.833 17.499 22.5s5 28.667 5 54v456c0 25.333 -1.66699 43.333 -5 54s-9.16602 18.167 -17.499 22.5s-22.5 7.5 -42.5 9.5v22c24.667 -2 44.5 -3.5 59.5 -4.5
s29.5 -1.5 43.5 -1.5s28.5 0.5 43.5 1.5s34.833 2.5 59.5 4.5v-22c-20 -2 -34.167 -5.16699 -42.5 -9.5s-14.166 -11.833 -17.499 -22.5s-5 -28.667 -5 -54v-203h227v203c0 25.333 -1.66699 43.333 -5 54s-9.16602 18.167 -17.499 22.5s-22.5 7.5 -42.5 9.5v22
c24.667 -2 44.5 -3.5 59.5 -4.5s29.5 -1.5 43.5 -1.5s28.5 0.5 43.5 1.5s34.833 2.5 59.5 4.5v-22c-20 -2 -34.167 -5.16699 -42.5 -9.5z" />
    <glyph glyph-name="I" unicode="I" horiz-adv-x="270" 
d="M92 616c-3.33301 10.667 -9.16602 18.167 -17.499 22.5s-22.5 7.5 -42.5 9.5v22c24.667 -2 44.5 -3.5 59.5 -4.5s29.5 -1.5 43.5 -1.5s28.5 0.5 43.5 1.5s34.833 2.5 59.5 4.5v-22c-20 -2 -34.167 -5.16699 -42.5 -9.5s-14.166 -11.833 -17.499 -22.5s-5 -28.667 -5 -54
v-456c0 -25.333 1.66699 -43.333 5 -54s9.16602 -18.167 17.499 -22.5s22.5 -7.5 42.5 -9.5v-22c-24.667 2 -44.5 3.5 -59.5 4.5s-29.5 1.5 -43.5 1.5s-28.5 -0.5 -43.5 -1.5s-34.833 -2.5 -59.5 -4.5v22c20 2 34.167 5.16699 42.5 9.5s14.166 11.833 17.499 22.5
s5 28.667 5 54v456c0 25.333 -1.66699 43.333 -5 54z" />
    <glyph glyph-name="J" unicode="J" horiz-adv-x="260" 
d="M60 -61c21.333 26 31.999 63.333 31.999 112v511c0 25.333 -1.66699 43.333 -5 54s-9.16602 18.167 -17.499 22.5s-22.5 7.5 -42.5 9.5v22c24.667 -2 44.5 -3.5 59.5 -4.5s29.5 -1.5 43.5 -1.5s28.5 0.5 43.5 1.5s34.833 2.5 59.5 4.5v-22
c-20 -2 -34.167 -5.16699 -42.5 -9.5s-14.166 -11.833 -17.499 -22.5s-5 -28.667 -5 -54v-435c0 -151.333 -62.333 -237.333 -187 -258v23c31.333 5.33301 57.666 21 78.999 47z" />
    <glyph glyph-name="K" unicode="K" horiz-adv-x="529" 
d="M483 36c10 -8 25.335 -13.334 46.002 -16.001v-22c-33.333 4 -65.333 6 -96 6c-38.667 0 -76 -2 -112 -6v22c20 2.66699 33.833 5.33398 41.5 8.00098s11.5 8 11.5 16c0 9.33301 -6 24.333 -18 45l-148 252h-35v-235c0 -25.333 1.66699 -43.333 5 -54
s9.16602 -18.167 17.499 -22.5s22.5 -7.5 42.5 -9.5v-22c-24.667 2 -44.5 3.5 -59.5 4.5s-29.5 1.5 -43.5 1.5s-28.5 -0.5 -43.5 -1.5s-34.833 -2.5 -59.5 -4.5v22c20 2 34.167 5.16699 42.5 9.5s14.166 11.833 17.499 22.5s5 28.667 5 54v456
c0 25.333 -1.66699 43.333 -5 54s-9.16602 18.167 -17.499 22.5s-22.5 7.5 -42.5 9.5v22c24.667 -2 44.5 -3.5 59.5 -4.5s29.5 -1.5 43.5 -1.5s28.5 0.5 43.5 1.5s34.833 2.5 59.5 4.5v-22c-20 -2 -34.167 -5.16699 -42.5 -9.5s-14.166 -11.833 -17.499 -22.5
s-5 -28.667 -5 -54v-193h35l151 216c11.333 16.667 17 29 17 37c0 8.66699 -4.83301 14.834 -14.5 18.501s-24.834 6.16699 -45.501 7.5v22c38 -4 69.667 -6 95 -6c24 0 53.333 2 88 6v-22c-20.667 -2.66699 -35.834 -5.33398 -45.501 -8.00098s-19 -8 -28 -16
s-19.833 -21 -32.5 -39l-132 -189l187 -315c13.333 -22 25 -37 35 -45z" />
    <glyph glyph-name="L" unicode="L" horiz-adv-x="445" 
d="M32 0l-0.00195312 21.999c19.333 1.33301 33.333 3.83301 42 7.5s14.667 10.834 18 21.501s5 27.667 5 51v460c0 25.333 -1.66699 43.333 -5 54s-9.16602 18.167 -17.499 22.5s-22.5 7.5 -42.5 9.5v22c24.667 -2 44.5 -3.5 59.5 -4.5s29.5 -1.5 43.5 -1.5
c24.667 0 61 2 109 6v-22c-22 -2 -37.667 -5 -47 -9s-15.666 -11.5 -18.999 -22.5s-5 -29.167 -5 -54.5v-494c0 -15.333 3 -25.833 9 -31.5s19.333 -8.5 40 -8.5h60c24 0 43.833 4.5 59.5 13.5s29 24.5 40 46.5s20.833 53 29.5 93h20l-26 -181h-373z" />
    <glyph glyph-name="M" unicode="M" horiz-adv-x="674" 
d="M588.5 52.5c3.66699 -11 9.83008 -18.667 18.4971 -23s23 -7.5 43 -9.5v-22c-24.667 2 -44.5 3.5 -59.5 4.5s-29.5 1.5 -43.5 1.5h-2c-24 0 -60 -2 -108 -6v22c22 2 37.667 5 47 9s15.5 11.5 18.5 22.5s4.16699 29.167 3.5 54.5l-14 481l-174 -574h-12l-171 573l-15 -480
c-0.666992 -25.333 0.5 -43.5 3.5 -54.5s9.16699 -18.5 18.5 -22.5s25 -7 47 -9v-22c-38 4 -66.333 6 -85 6h-1c-14 0 -40.333 -2 -79 -6v22c20 2 34.333 5.16699 43 9.5s14.834 12 18.501 23s5.83398 28.833 6.50098 53.5l14 456c0.666992 25.333 -0.333008 43.5 -3 54.5
s-8.16699 18.5 -16.5 22.5s-22.5 7 -42.5 9v22c48.667 -4 79.667 -6 93 -6c21.333 0 39.333 1 54 3l146 -494l149 494c14 -2 31 -3 51 -3c7.33301 0 28 1 62 3c4.66699 0 15 0.666992 31 2v-22c-20 -2 -34.167 -5 -42.5 -9s-13.833 -11.333 -16.5 -22
s-3.66699 -28.667 -3 -54l14 -456c0.666992 -24.667 2.83398 -42.5 6.50098 -53.5z" />
    <glyph glyph-name="N" unicode="N" horiz-adv-x="548" 
d="M521 670v-22c-20 -2 -34.167 -5.16699 -42.5 -9.5s-14.166 -11.833 -17.499 -22.5s-5 -28.667 -5 -54v-572h-12l-319 590v-474c0 -25.333 1.83301 -43.5 5.5 -54.5s10.167 -18.5 19.5 -22.5s25.333 -7 48 -9v-22c-36 4 -64 6 -84 6h-3c-14 0 -40.333 -2 -79 -6v22
c20 2 34.167 5.16699 42.5 9.5s14.166 11.833 17.499 22.5s5 28.667 5 54v514c-5.33301 6.66699 -13 12.167 -23 16.5s-24 7.83301 -42 10.5v22c33.333 -3.33301 59 -5 77 -5c17.333 0 35 1 53 3l266 -491v385c0 25.333 -1.83301 43.5 -5.5 54.5s-10.167 18.667 -19.5 23
s-25.333 7.5 -48 9.5v22c30.667 -4 58.667 -6 84 -6h3c14 0 40.333 2 79 6z" />
    <glyph glyph-name="O" unicode="O" horiz-adv-x="546" 
d="M155.5 30c-35 26.667 -62.833 65.834 -83.5 117.501s-31 113.834 -31 186.501s10.333 134.834 31 186.501s48.5 90.834 83.5 117.501s74.167 40 117.5 40s82.5 -13.333 117.5 -40s62.833 -65.834 83.5 -117.501s31 -113.834 31 -186.501s-10.333 -134.834 -31 -186.501
s-48.5 -90.834 -83.5 -117.501s-74.167 -40 -117.5 -40s-82.5 13.333 -117.5 40zM386 99.5c25.333 55.667 38 133.834 38 234.501s-12.667 178.834 -38 234.501s-63 83.5 -113 83.5s-87.667 -27.833 -113 -83.5s-38 -133.834 -38 -234.501s12.667 -178.834 38 -234.501
s63 -83.5 113 -83.5s87.667 27.833 113 83.5z" />
    <glyph glyph-name="P" unicode="P" horiz-adv-x="467" 
d="M173 304l0.000976562 -198.001c0 -24 2.5 -41.833 7.5 -53.5s13 -19.5 24 -23.5s28.167 -7 51.5 -9v-22c-46 4 -82.667 6 -110 6h-11c-14 0 -28.5 -0.5 -43.5 -1.5s-34.833 -2.5 -59.5 -4.5v22c20 2 34.167 5.16699 42.5 9.5s14.166 11.833 17.499 22.5s5 28.667 5 54
v460c0 23.333 -1.66699 40.333 -5 51s-9.33301 17.834 -18 21.501s-22.667 6.16699 -42 7.5v22h213c64 0 113.833 -16 149.5 -48s53.5 -75.667 53.5 -131c0 -36.667 -9.16699 -69 -27.5 -97s-43 -49.667 -74 -65s-65.5 -23 -103.5 -23h-70zM173.001 639.999
l0.000976562 -306.999h59c45.333 0 79.166 13.167 101.499 39.5s33.5 63.5 33.5 111.5c0 49.333 -11.333 87.666 -34 114.999s-57 41 -103 41h-57z" />
    <glyph glyph-name="Q" unicode="Q" horiz-adv-x="546" 
d="M473 -126c7.33301 0 12.999 0.332031 16.999 0.999023v-22c-20 -6 -44 -9 -72 -9c-26 0 -48 4 -66 12s-33 23 -45 45l-13 24c-11.333 20.667 -22 36.334 -32 47.001s-23.667 19 -41 25c-53.333 15.333 -96.666 52.166 -129.999 110.499s-50 133.833 -50 226.5
c0 72.667 10.333 134.834 31 186.501s48.5 90.834 83.5 117.501s74.167 40 117.5 40s82.5 -13.333 117.5 -40s62.833 -65.834 83.5 -117.501s31 -113.834 31 -186.501c0 -71.333 -10 -132.666 -30 -183.999s-47 -90.333 -81 -117s-72 -41 -114 -43
c20 -3.33301 38.667 -10 56 -20s31.333 -22.667 42 -38l14 -20c16.667 -25.333 43.667 -38 81 -38zM159.999 99.499c25.333 -55.667 63 -83.5 113 -83.5s87.667 27.833 113 83.5s38 133.834 38 234.501s-12.667 178.834 -38 234.501s-63 83.5 -113 83.5
s-87.667 -27.833 -113 -83.5s-38 -133.834 -38 -234.501s12.667 -178.834 38 -234.501z" />
    <glyph glyph-name="R" unicode="R" horiz-adv-x="508" 
d="M466 38.5c6 -7.66699 13.502 -12.834 22.502 -15.501s21.833 -4 38.5 -4v-22c-16 -4 -35 -6 -57 -6c-25.333 0 -47.166 5.83301 -65.499 17.5s-32.833 32.834 -43.5 63.501l-51 146c-12 34 -26.333 59.5 -43 76.5s-41 25.5 -73 25.5h-21v-214
c0 -25.333 1.66699 -43.333 5 -54s9.16602 -18.167 17.499 -22.5s22.5 -7.5 42.5 -9.5v-22c-24.667 2 -44.5 3.5 -59.5 4.5s-29.5 1.5 -43.5 1.5s-28.5 -0.5 -43.5 -1.5s-34.833 -2.5 -59.5 -4.5v22c20 2 34.167 5.16699 42.5 9.5s14.166 11.833 17.499 22.5s5 28.667 5 54
v460c0 23.333 -1.66699 40.333 -5 51s-9.33301 17.834 -18 21.501s-22.667 6.16699 -42 7.5v22h213c58 0 103.833 -15.5 137.5 -46.5s50.5 -72.5 50.5 -124.5c0 -45.333 -16 -83.333 -48 -114s-71.667 -48.667 -119 -54c24.667 -4 48.667 -14.833 72 -32.5
s41.666 -44.167 54.999 -79.5l54 -142c6.66699 -16.667 13 -28.834 19 -36.501zM173.002 640v-292.001h58c40.667 0 71 12.667 91 38s30 61 30 107c0 46.667 -10 82.834 -30 108.501s-50.667 38.5 -92 38.5h-57z" />
    <glyph glyph-name="S" unicode="S" horiz-adv-x="439" 
d="M377 277.5c18.667 -28.333 27.998 -63.1641 27.998 -104.497c0 -32.667 -8 -63 -24 -91s-38 -50.333 -66 -67s-59.333 -25 -94 -25c-28 0 -54 5.5 -78 16.5s-43 25.833 -57 44.5l-26 -66h-14v229h20c8.66699 -64.667 25.167 -113.834 49.5 -147.501
s58.5 -50.5 102.5 -50.5c38 0 67.833 10.5 89.5 31.5s32.5 49.833 32.5 86.5c0 36 -8.5 65.667 -25.5 89s-42.833 45.333 -77.5 66l-73 43c-36.667 21.333 -64.5 46 -83.5 74s-28.5 62.667 -28.5 104c0 34.667 7.66699 64.667 23 90s35.5 44.666 60.5 57.999
s51.5 20 79.5 20c26.667 0 50.834 -6.33301 72.501 -19s38.834 -28.667 51.501 -48l20 68h14v-200h-18c-8.66699 52 -24.5 93.833 -47.5 125.5s-52.5 47.5 -88.5 47.5c-33.333 0 -59.333 -10.5 -78 -31.5s-28 -49.167 -28 -84.5c0 -30 7.5 -54.833 22.5 -74.5
s38.5 -38.834 70.5 -57.501l87 -51c37.333 -22 65.333 -47.167 84 -75.5z" />
    <glyph glyph-name="T" unicode="T" horiz-adv-x="464" 
d="M446 504h-20.002c-7.33301 38.667 -14.666 67.167 -21.999 85.5s-18 31.333 -32 39s-34.667 11.5 -62 11.5h-40v-534c0 -25.333 1.83301 -43.5 5.5 -54.5s10.167 -18.5 19.5 -22.5s25 -7 47 -9v-22c-46 4 -82.667 6 -110 6s-64 -2 -110 -6v22c22 2 37.667 5 47 9
s15.833 11.5 19.5 22.5s5.5 29.167 5.5 54.5v534h-40c-27.333 0 -48 -3.83301 -62 -11.5s-24.667 -20.667 -32 -39s-14.666 -46.833 -21.999 -85.5h-20l13 164h402z" />
    <glyph glyph-name="U" unicode="U" horiz-adv-x="556" 
d="M433 616c-3.33301 10.667 -9.16992 18.166 -17.5029 22.499s-22.5 7.5 -42.5 9.5v22c38.667 -4 65 -6 79 -6s40.333 2 79 6v-22c-20 -2 -34.167 -5.16699 -42.5 -9.5s-14.166 -11.833 -17.499 -22.5s-5 -28.667 -5 -54v-377c0 -64 -16 -112.5 -48 -145.5
s-77 -49.5 -135 -49.5c-60 0 -107.333 16.667 -142 50s-52 79.333 -52 138v384c0 25.333 -1.66699 43.333 -5 54s-9.16602 18.167 -17.499 22.5s-22.5 7.5 -42.5 9.5v22c24.667 -2 44.5 -3.5 59.5 -4.5s29.5 -1.5 43.5 -1.5s28.5 0.5 43.5 1.5s34.833 2.5 59.5 4.5v-22
c-20 -2 -34.167 -5.16699 -42.5 -9.5s-14.166 -11.833 -17.499 -22.5s-5 -28.667 -5 -54v-374c0 -54 11.5 -94 34.5 -120s55.167 -39 96.5 -39c46.667 0 82 12.833 106 38.5s36 65.834 36 120.501v374c0 25.333 -1.66699 43.333 -5 54z" />
    <glyph glyph-name="V" unicode="V" horiz-adv-x="500" 
d="M505 670l0.000976562 -21.999c-16.667 -2 -29.334 -5.16699 -38.001 -9.5s-16 -11.833 -22 -22.5s-12.333 -27.334 -19 -50.001l-165 -576h-12l-180 577c-7.33301 24 -14 41.167 -20 51.5s-12.833 17.333 -20.5 21s-20.167 6.5 -37.5 8.5v22
c41.333 -4 72.666 -6 93.999 -6c22 0 58.333 2 109 6v-22c-21.333 -2 -35.666 -4.83301 -42.999 -8.5s-11 -10.834 -11 -21.501c0 -9.33301 3.66699 -26.666 11 -51.999l124 -419l122 419c7.33301 25.333 11 42.666 11 51.999c0 10.667 -3.83301 17.834 -11.5 21.501
s-21.834 6.5 -42.501 8.5v22c38.667 -4 66.334 -6 83.001 -6c20 0 42.667 2 68 6z" />
    <glyph glyph-name="W" unicode="W" horiz-adv-x="690" 
d="M695 670l0.00195312 -22c-15.333 -2 -26.833 -5 -34.5 -9s-13.834 -11.5 -18.501 -22.5s-9.66699 -28.5 -15 -52.5l-121 -574h-12l-149 517l-142 -517h-12l-131 575c-5.33301 24 -10.333 41.333 -15 52s-10.667 18 -18 22s-18.333 7 -33 9v22
c37.333 -4 66.666 -6 87.999 -6c28.667 0 63.667 2 105 6v-22c-22 -2 -36.667 -5 -44 -9s-11 -12 -11 -24c0 -9.33301 2.66699 -26.333 8 -51l83 -393l137 507h12l144 -506l82 392c5.33301 23.333 8 40 8 50c0 12 -3.83301 20.167 -11.5 24.5s-22.5 7.5 -44.5 9.5v22
c28.667 -4 55 -6 79 -6c20 0 42 2 66 6z" />
    <glyph glyph-name="X" unicode="X" horiz-adv-x="483" 
d="M428 47.5c7.33301 -9.66699 14.8311 -16.167 22.498 -19.5s19.5 -6 35.5 -8v-22c-33.333 4 -64.666 6 -93.999 6c-27.333 0 -60.333 -2 -99 -6v22c18.667 2 31.167 4.33301 37.5 7s9.5 7.66699 9.5 15c0 8 -6.66699 26 -20 54l-94 202l-97 -202
c-12.667 -25.333 -19 -43.333 -19 -54c0 -7.33301 3.33301 -12.333 10 -15s19 -5 37 -7v-22c-34.667 4 -60 6 -76 6c-15.333 0 -39 -2 -71 -6v22c16.667 2 29 4.66699 37 8s15.667 9.83301 23 19.5s16.333 25.834 27 48.501l112 233l-112 243
c-10.667 22.667 -19.5 38.834 -26.5 48.501s-14.333 16.167 -22 19.5s-19.5 6 -35.5 8v22c44 -4 77 -6 99 -6c20.667 0 52.334 2 95.001 6v-22c-18.667 -2 -31.167 -4.33301 -37.5 -7s-9.5 -7.66699 -9.5 -15c0 -8 6.33301 -26.333 19 -55l73 -164l76 165
c12.667 27.333 19 45 19 53c0 7.33301 -3.33301 12.5 -10 15.5s-19 5.5 -37 7.5v22c33.333 -4 58 -6 74 -6c16.667 0 40 2 70 6v-22c-16 -2 -28 -4.83301 -36 -8.5s-15.5 -10.334 -22.5 -20.001s-15.833 -25.5 -26.5 -47.5l-91 -194l134 -282
c10 -22.667 18.667 -38.834 26 -48.501z" />
    <glyph glyph-name="Y" unicode="Y" horiz-adv-x="483" 
d="M483 670l0.00195312 -22c-16.667 -2 -29 -4.66699 -37 -8s-15.5 -9.83301 -22.5 -19.5s-15.5 -26.167 -25.5 -49.5l-114 -257v-208c-0.666992 -25.333 0.833008 -43.5 4.5 -54.5s10 -18.5 19 -22.5s24.167 -7 45.5 -9v-22c-26 2 -46.667 3.5 -62 4.5s-30.333 1.5 -45 1.5
c-24 0 -59.667 -2 -107 -6v22c21.333 2 36.5 5 45.5 9s15.333 11.5 19 22.5s5.16699 29.167 4.5 54.5v197l-131 269c-10.667 22 -19.334 37.833 -26.001 47.5s-13.834 16.334 -21.501 20.001s-18.834 6.5 -33.501 8.5v22c41.333 -4 73.333 -6 96 -6c25.333 0 59 2 101 6v-22
c-20 -2 -33.833 -4.66699 -41.5 -8s-11.5 -9 -11.5 -17c0 -9.33301 6 -26 18 -50l111 -222l99 220c11.333 24.667 17 42 17 52c0 8.66699 -3.66699 14.667 -11 18s-20.333 5.66602 -39 6.99902v22c30 -4 58.667 -6 86 -6c18.667 0 39.334 2 62.001 6z" />
    <glyph glyph-name="Z" unicode="Z" horiz-adv-x="446" 
d="M419 184l-22 -183.999h-385v8l310 632h-131c-26.667 0 -47 -4 -61 -12s-25 -21.833 -33 -41.5s-15.333 -48.834 -22 -87.501h-20l13 169h347v-8l-310 -632h159c30.667 0 54 4.33301 70 13s28.333 23.5 37 44.5s18 53.833 28 98.5h20z" />
    <glyph glyph-name="bracketleft" unicode="[" horiz-adv-x="253" 
d="M146 -148h94v-30h-164v895h164v-30h-94v-835z" />
    <glyph glyph-name="backslash" unicode="\" horiz-adv-x="315" 
d="M296 -95h-34l-242 763h34z" />
    <glyph glyph-name="bracketright" unicode="]" horiz-adv-x="253" 
d="M13 687v30h164v-895h-164v30h94v835h-94z" />
    <glyph glyph-name="asciicircum" unicode="^" 
d="M344 366l-124 275l-124 -275h-35l143 312h32l143 -312h-35z" />
    <glyph glyph-name="underscore" unicode="_" horiz-adv-x="500" 
d="M500 -70v-40h-500v40h500z" />
    <glyph glyph-name="grave" unicode="`" horiz-adv-x="320" 
d="M203 534l-107.999 98.001c-8 7.33301 -12 15.666 -12 24.999c0 10 3.5 18.333 10.5 25s15.167 10 24.5 10c13.333 0 24.666 -7.66699 33.999 -23l78 -135h-27z" />
    <glyph glyph-name="a" unicode="a" horiz-adv-x="386" 
d="M331.5 34c8.33301 -8 22.499 -11.998 42.499 -11.998v-20c-21.333 -5.33301 -39.666 -8 -54.999 -8c-18.667 0 -33.167 5.66699 -43.5 17s-15.5 28.666 -15.5 51.999v8c-10 -26.667 -24.667 -46.834 -44 -60.501s-41.333 -20.5 -66 -20.5c-36 0 -64 12 -84 36
s-30 55.667 -30 95c0 43.333 12.333 76.666 37 99.999s62.334 42 113.001 56c31.333 8.66699 52.333 14 63 16v71c0 59.333 -21.333 89 -64 89c-44 0 -66 -29.333 -66 -88c0 -15.333 -2.66699 -25.833 -8 -31.5s-13.333 -8.5 -24 -8.5c-20.667 0 -31 11.667 -31 35
c0 21.333 6 41 18 59s28 32.333 48 43s41.667 16 65 16c41.333 0 73.666 -13.167 96.999 -39.5s35 -61.166 35 -104.499v-254c0 -22.667 4.16699 -38 12.5 -46zM227.499 59.502c14.333 21 21.501 50.501 21.501 88.501v120c-12.667 -2.66699 -31 -7.33398 -55 -14.001
c-32.667 -9.33301 -54.834 -24.833 -66.501 -46.5s-17.5 -49.167 -17.5 -82.5c0 -31.333 5.83301 -55.333 17.5 -72s27.5 -25 47.5 -25c20.667 0 38.167 10.5 52.5 31.5z" />
    <glyph glyph-name="b" unicode="b" horiz-adv-x="422" 
d="M313.5 448c23.667 -20 42.001 -48.499 55.001 -85.499s19.5 -80.167 19.5 -129.5c0 -48 -7.5 -90.5 -22.5 -127.5s-34.833 -65.5 -59.5 -85.5s-51 -30 -79 -30c-23.333 0 -43.833 7.16699 -61.5 21.5s-31.834 35.166 -42.501 62.499l-45 -85h-16v585
c0 20.667 -1.33301 36 -4 46s-8 17 -16 21s-20.667 6.66699 -38 8v21c49.333 1.33301 87.333 4 114 8h14v-269c24.667 46 57.667 69 99 69c31.333 0 58.833 -10 82.5 -30zM314.001 232.001c0 66.667 -7.83301 119.332 -23.5 157.999s-39.167 58 -70.5 58
c-28 0 -50.333 -18.167 -67 -54.5s-25 -90.166 -25 -161.499c0 -69.333 8.5 -122.833 25.5 -160.5s40.167 -56.5 69.5 -56.5c60.667 0 91 72.333 91 217z" />
    <glyph glyph-name="c" unicode="c" horiz-adv-x="358" 
d="M326 157c-4 -52.667 -17.668 -93.668 -41.001 -123.001s-54.333 -44 -93 -44c-49.333 0 -88 23 -116 69s-42 104 -42 174c0 49.333 7.66699 92.5 23 129.5s36 65.5 62 85.5s54.333 30 85 30c17.333 0 33 -3.66699 47 -11s26 -17 36 -29l16 43h16v-167h-19
c-7.33301 47.333 -18.833 82.333 -34.5 105s-36.5 34 -62.5 34c-31.333 0 -55 -19.167 -71 -57.5s-24 -92.5 -24 -162.5c0 -67.333 8.33301 -119.666 25 -156.999s41.334 -56 74.001 -56c26 0 47.5 12 64.5 36s26.833 57.667 29.5 101h25z" />
    <glyph glyph-name="d" unicode="d" horiz-adv-x="436" 
d="M365 54c2.66699 -10 8 -17 16 -21s20.667 -6.66699 38 -8v-21c-49.333 -1.33301 -87.333 -4 -114 -8h-9v76c-12 -26.667 -27 -47 -45 -61s-38 -21 -60 -21c-31.333 0 -58.833 10 -82.5 30s-42 48.5 -55 85.5s-19.5 80.167 -19.5 129.5c0 48 7.5 90.5 22.5 127.5
s34.833 65.5 59.5 85.5s51 30 79 30c42 0 74 -22 96 -66v162c0 20.667 -1.33301 36 -4 46s-8 17 -16 21s-20.667 6.66699 -38 8v21c49.333 1.33301 87.333 4 114 8h14v-578c0 -20.667 1.33301 -36 4 -46zM269 74.5c16.667 36.333 25 90.168 25 161.501
c0 69.333 -8.5 122.833 -25.5 160.5s-40.167 56.5 -69.5 56.5c-60.667 0 -91 -72.333 -91 -217c0 -66.667 7.83301 -119.334 23.5 -158.001s39.167 -58 70.5 -58c28 0 50.333 18.167 67 54.5z" />
    <glyph glyph-name="e" unicode="e" horiz-adv-x="385" 
d="M109 247v-14c0 -72 8.5 -125.5 25.5 -160.5s43.833 -52.5 80.5 -52.5c30 0 55.167 12.167 75.5 36.5s31.833 57.833 34.5 100.5h25c-3.33301 -52 -18.166 -92.833 -44.499 -122.5s-60.5 -44.5 -102.5 -44.5c-54.667 0 -96.334 22.667 -125.001 68
s-43 103.666 -43 174.999c0 49.333 7.33301 92.5 22 129.5s34.5 65.5 59.5 85.5s52.167 30 81.5 30c28.667 0 54.5 -9 77.5 -27s41.167 -43.667 54.5 -77s20 -72.666 20 -117.999v-9h-241zM135.5 406c-14.333 -31.333 -22.834 -76 -25.501 -134h170
c0 56 -7.16699 100.167 -21.5 132.5s-35.166 48.5 -62.499 48.5c-26 0 -46.167 -15.667 -60.5 -47z" />
    <glyph glyph-name="f" unicode="f" horiz-adv-x="280" 
d="M166.5 638c-7 -15.333 -10.499 -38.998 -10.499 -70.998v-99h112v-29h-112v-343c0 -22 1.5 -37.833 4.5 -47.5s9 -16.334 18 -20.001s23.5 -6.5 43.5 -8.5v-22c-36 4 -68.333 6 -97 6h-4c-26 0 -55.667 -2 -89 -6v22c16.667 2 28.5 4.83301 35.5 8.5
s11.833 10.5 14.5 20.5s4 25.667 4 47v343h-71v24c24.667 1.33301 42.167 3.5 52.5 6.5s17.166 8.5 20.499 16.5s5 21.333 5 40c0 55.333 11 95.666 33 120.999s48.333 38 79 38c24.667 0 46.167 -7 64.5 -21s27.5 -34 27.5 -60c0 -20.667 -10 -31 -30 -31
c-19.333 0 -29 12 -29 36c0 18.667 -3.16699 32 -9.5 40s-15.833 12 -28.5 12c-15.333 0 -26.5 -7.66699 -33.5 -23z" />
    <glyph glyph-name="g" unicode="g" horiz-adv-x="381" 
d="M320 63.5c30.667 -18.333 46 -49.834 46 -94.501c0 -27.333 -8.33301 -52.166 -25 -74.499s-39 -39.833 -67 -52.5s-58 -19 -90 -19c-50 0 -90.333 9.33301 -121 28s-46 46 -46 82c0 24.667 8 46 24 64s38 31.667 66 41c-20 4.66699 -35.833 12.667 -47.5 24
s-17.5 26 -17.5 44c0 23.333 9.33301 41.666 28 54.999s42.667 24.666 72 33.999c-28.667 8 -52.167 24.167 -70.5 48.5s-27.5 53.833 -27.5 88.5c0 44 13.333 79.333 40 106s59.334 40 98.001 40c20.667 0 40 -4 58 -12l121 4v-39l-86 6
c14.667 -11.333 26 -26.166 34 -44.499s12 -39.166 12 -62.499c0 -32.667 -7.83301 -60.5 -23.5 -83.5s-36.834 -39.5 -63.501 -49.5c-8 -2.66699 -25.333 -8 -52 -16c-30.667 -9.33301 -52.834 -17.333 -66.501 -24s-20.5 -15.667 -20.5 -27
c0 -10.667 4.83301 -17.667 14.5 -21s28.167 -6 55.5 -8l33 -3c50.667 -4.66699 91.334 -16.167 122.001 -34.5zM128 245.499c12 -22.333 30 -33.501 54 -33.501c24.667 0 43.167 11 55.5 33s18.5 51 18.5 87s-6.16699 65.167 -18.5 87.5s-30.833 33.5 -55.5 33.5
c-24 0 -42 -11.167 -54 -33.5s-18 -51.5 -18 -87.5c0 -35.333 6 -64.166 18 -86.499zM279 -128.502c23.333 15.667 35 38.5 35 68.5c0 29.333 -11.667 51.166 -35 65.499s-53.333 21.5 -90 21.5s-66.667 -7.16699 -90 -21.5s-35 -36.166 -35 -65.499
c0 -30 11.667 -52.833 35 -68.5s53.333 -23.5 90 -23.5s66.667 7.83301 90 23.5z" />
    <glyph glyph-name="h" unicode="h" horiz-adv-x="444" 
d="M376 49c2.66699 -10 7.50195 -16.833 14.502 -20.5s18.833 -6.5 35.5 -8.5v-22c-32.667 4 -62.334 6 -89.001 6c-24.667 0 -53 -2 -85 -6v22c15.333 2 26.333 4.83301 33 8.5s11.167 10.334 13.5 20.001s3.5 25.5 3.5 47.5v265c0 30.667 -5.16699 52.667 -15.5 66
s-25.5 20 -45.5 20c-26.667 0 -49.167 -12 -67.5 -36s-27.5 -54.333 -27.5 -91v-224c0 -22 1.16699 -37.833 3.5 -47.5s6.83301 -16.334 13.5 -20.001s17.667 -6.5 33 -8.5v-22c-32 4 -60.333 6 -85 6c-26 0 -55.667 -2 -89 -6v22c16.667 2 28.5 4.83301 35.5 8.5
s11.833 10.5 14.5 20.5s4 25.667 4 47v478c0 20.667 -1.33301 36 -4 46s-8 17 -16 21s-20.667 6.66699 -38 8v21c49.333 1.33301 87.333 4 114 8h14v-265c12 20 27.333 35.833 46 47.5s39.667 17.5 63 17.5c37.333 0 66.166 -12.667 86.499 -38s30.5 -60.333 30.5 -105v-239
c0 -21.333 1.33301 -37 4 -47z" />
    <glyph glyph-name="i" unicode="i" horiz-adv-x="229" 
d="M78 416c-2.66699 10 -7.99902 17 -15.999 21s-20.667 6.66699 -38 8v21c49.333 1.33301 87.333 4 114 8h14v-378c0 -21.333 1.33301 -37 4 -47s7.5 -16.833 14.5 -20.5s18.833 -6.5 35.5 -8.5v-22c-32.667 4 -62.334 6 -89.001 6c-26 0 -55.667 -2 -89 -6v22
c16.667 2 28.5 4.83301 35.5 8.5s11.833 10.5 14.5 20.5s4 25.667 4 47v274c0 20.667 -1.33301 36 -4 46zM78.501 572c-9 9.33301 -13.5 21 -13.5 35s4.5 25.667 13.5 35s20.5 14 34.5 14s25.5 -4.66699 34.5 -14s13.5 -21 13.5 -35s-4.5 -25.667 -13.5 -35
s-20.5 -14 -34.5 -14s-25.5 4.66699 -34.5 14z" />
    <glyph glyph-name="j" unicode="j" horiz-adv-x="214" 
d="M55 -122c18 22 27 53.667 27 95v397c0 20.667 -1.33301 36 -4 46s-8 17 -16 21s-20.667 6.66699 -38 8v21c49.333 1.33301 87.333 4 114 8h14v-467c0 -66.667 -17 -114 -51 -142s-72.667 -42 -116 -42v22c28.667 0 52 11 70 33zM78.5 572c-9 9.33301 -13.5 21 -13.5 35
s4.5 25.667 13.5 35s20.5 14 34.5 14s25.5 -4.66699 34.5 -14s13.5 -21 13.5 -35s-4.5 -25.667 -13.5 -35s-20.5 -14 -34.5 -14s-25.5 4.66699 -34.5 14z" />
    <glyph glyph-name="k" unicode="k" horiz-adv-x="435" 
d="M388 36c6 -5.33301 12.168 -9 18.501 -11s16.833 -3.66699 31.5 -5v-22c-30.667 4 -60 6 -88 6c-32.667 0 -62.667 -2 -90 -6v22c14 1.33301 23.833 3 29.5 5s8.5 5.66699 8.5 11c0 6.66699 -4.33301 17.334 -13 32.001l-106 179h-33v-151c0 -21.333 1.33301 -37 4 -47
s7.5 -16.833 14.5 -20.5s18.833 -6.5 35.5 -8.5v-22c-32.667 4 -62.334 6 -89.001 6c-26 0 -55.667 -2 -89 -6v22c16.667 2 28.5 4.83301 35.5 8.5s11.833 10.5 14.5 20.5s4 25.667 4 47v478c0 20.667 -1.33301 36 -4 46s-8 17 -16 21s-20.667 6.66699 -38 8v21
c49.333 1.33301 87.333 4 114 8h14v-406h34l114 132c8.66699 10.667 13 19 13 25s-3.83301 10.333 -11.5 13s-19.5 5 -35.5 7v22c28.667 -4 53 -6 73 -6s44.667 2 74 6v-22c-19.333 -2 -34 -5.83301 -44 -11.5s-22.333 -16.834 -37 -33.501l-97 -114l139 -227
c7.33301 -12.667 14 -21.667 20 -27z" />
    <glyph glyph-name="l" unicode="l" horiz-adv-x="224" 
d="M73 620c-2.66699 10 -7.99902 17 -15.999 21s-20.667 6.66699 -38 8v21c49.333 1.33301 87.333 4 114 8h14v-582c0 -21.333 1.33301 -37 4 -47s7.5 -16.833 14.5 -20.5s18.833 -6.5 35.5 -8.5v-22c-32.667 4 -62.334 6 -89.001 6c-26 0 -55.667 -2 -89 -6v22
c16.667 2 28.5 4.83301 35.5 8.5s11.833 10.5 14.5 20.5s4 25.667 4 47v478c0 20.667 -1.33301 36 -4 46z" />
    <glyph glyph-name="m" unicode="m" horiz-adv-x="657" 
d="M589 49c2.66699 -10 7.50098 -16.833 14.501 -20.5s18.833 -6.5 35.5 -8.5v-22c-32.667 4 -62.334 6 -89.001 6c-24.667 0 -53 -2 -85 -6v22c15.333 2 26.333 4.83301 33 8.5s11.167 10.334 13.5 20.001s3.5 25.5 3.5 47.5v265c0 30.667 -4.83301 52.667 -14.5 66
s-24.167 20 -43.5 20c-24.667 0 -45.667 -12 -63 -36s-26 -54.333 -26 -91v-224c0 -22 1.16699 -37.833 3.5 -47.5s6.83301 -16.334 13.5 -20.001s17.667 -6.5 33 -8.5v-22c-32 4 -60.333 6 -85 6s-53 -2 -85 -6v22c15.333 2 26.333 4.83301 33 8.5
s11.167 10.334 13.5 20.001s3.5 25.5 3.5 47.5v265c0 30.667 -4.83301 52.667 -14.5 66s-24.167 20 -43.5 20c-24.667 0 -45.667 -12 -63 -36s-26 -54.333 -26 -91v-224c0 -22 1.16699 -37.833 3.5 -47.5s6.83301 -16.334 13.5 -20.001s17.667 -6.5 33 -8.5v-22
c-32 4 -60.333 6 -85 6c-26 0 -55.667 -2 -89 -6v22c16.667 2 28.5 4.83301 35.5 8.5s11.833 10.5 14.5 20.5s4 25.667 4 47v274c0 20.667 -1.33301 36 -4 46s-8 17 -16 21s-20.667 6.66699 -38 8v21c49.333 1.33301 87.333 4 114 8h10v-66c11.333 22 26 39.167 44 51.5
s38.667 18.5 62 18.5c26.667 0 49 -6.83301 67 -20.5s31 -32.834 39 -57.501c10.667 24.667 25.667 43.834 45 57.501s41.333 20.5 66 20.5c36.667 0 65 -12.667 85 -38s30 -60.333 30 -105v-239c0 -21.333 1.33301 -37 4 -47z" />
    <glyph glyph-name="n" unicode="n" horiz-adv-x="449" 
d="M381 49c2.66699 -10 7.50195 -16.834 14.502 -20.501s18.833 -6.5 35.5 -8.5v-22c-32.667 4 -62.334 6 -89.001 6c-24.667 0 -53 -2 -85 -6v22c15.333 2 26.333 4.83301 33 8.5s11.167 10.334 13.5 20.001s3.5 25.5 3.5 47.5v265c0 30.667 -5.16699 52.667 -15.5 66
s-25.5 20 -45.5 20c-26.667 0 -49.167 -12 -67.5 -36s-27.5 -54.333 -27.5 -91v-224c0 -22 1.16699 -37.833 3.5 -47.5s6.83301 -16.334 13.5 -20.001s17.667 -6.5 33 -8.5v-22c-32 4 -60.333 6 -85 6c-26 0 -55.667 -2 -89 -6v22c16.667 2 28.5 4.83301 35.5 8.5
s11.833 10.5 14.5 20.5s4 25.667 4 47v274c0 20.667 -1.33301 36 -4 46s-8 17 -16 21s-20.667 6.66699 -38 8v21c49.333 1.33301 87.333 4 114 8h10v-68c12 22.667 27.667 40.334 47 53.001s41.333 19 66 19c37.333 0 66.166 -12.667 86.499 -38s30.5 -60.333 30.5 -105
v-239c0 -21.333 1.33301 -37 4 -47z" />
    <glyph glyph-name="o" unicode="o" horiz-adv-x="408" 
d="M118 19.5c-26 19.667 -46.5 48 -61.5 85s-22.5 80.167 -22.5 129.5s7.5 92.5 22.5 129.5s35.5 65.333 61.5 85s54.667 29.5 86 29.5s60 -9.83301 86 -29.5s46.5 -48 61.5 -85s22.5 -80.167 22.5 -129.5s-7.5 -92.5 -22.5 -129.5s-35.5 -65.333 -61.5 -85
s-54.667 -29.5 -86 -29.5s-60 9.83301 -86 29.5zM300 234c0 146 -32 219 -96 219s-96 -73 -96 -219s32 -219 96 -219s96 73 96 219z" />
    <glyph glyph-name="p" unicode="p" horiz-adv-x="438" 
d="M329.5 448c23.667 -20 42.002 -48.499 55.002 -85.499s19.5 -80.167 19.5 -129.5c0 -48 -7.5 -90.5 -22.5 -127.5s-34.833 -65.5 -59.5 -85.5s-51 -30 -79 -30c-40.667 0 -72.334 21.333 -95.001 64v-130c0 -22 1.33301 -37.833 4 -47.5s8 -16.334 16 -20.001
s21.333 -6.5 40 -8.5v-22c-34 4 -65 6 -93 6h-2c-26.667 0 -56.334 -2 -89.001 -6v22c16.667 2 28.5 4.83301 35.5 8.5s11.833 10.5 14.5 20.5s4 25.667 4 47v446c0 20.667 -1.33301 36 -4 46s-8 17 -16 21s-20.667 6.66699 -38 8v21c49.333 1.33301 87.333 4 114 8h9v-76
c12 26 26.833 45.833 44.5 59.5s37.5 20.5 59.5 20.5c31.333 0 58.833 -10 82.5 -30zM330.002 232.001c0 66.667 -7.83301 119.332 -23.5 157.999s-39.167 58 -70.5 58c-28 0 -50.333 -18.167 -67 -54.5s-25 -90.166 -25 -161.499c0 -69.333 8.5 -122.833 25.5 -160.5
s40.167 -56.5 69.5 -56.5c60.667 0 91 72.333 91 217z" />
    <glyph glyph-name="q" unicode="q" horiz-adv-x="422" 
d="M364 -123c2.66699 -10 7.50098 -16.834 14.501 -20.501s18.833 -6.5 35.5 -8.5v-22c-32.667 4 -62.334 6 -89.001 6h-2c-28 0 -59 -2 -93 -6v22c18.667 2 32 4.83301 40 8.5s13.333 10.334 16 20.001s4 25.5 4 47.5v135c-24.667 -46 -57.667 -69 -99 -69
c-31.333 0 -58.833 10 -82.5 30s-42 48.5 -55 85.5s-19.5 80.167 -19.5 129.5c0 48 7.5 90.5 22.5 127.5s34.833 65.5 59.5 85.5s51 30 79 30c43.333 0 76 -23.333 98 -70l51 78h16v-562c0 -21.333 1.33301 -37 4 -47zM269.001 74.499c16.667 36.333 25 90.168 25 161.501
c0 69.333 -8.5 122.833 -25.5 160.5s-40.167 56.5 -69.5 56.5c-60.667 0 -91 -72.333 -91 -217c0 -66.667 7.83301 -119.334 23.5 -158.001s39.167 -58 70.5 -58c28 0 50.333 18.167 67 54.5z" />
    <glyph glyph-name="r" unicode="r" horiz-adv-x="333" 
d="M302 457c13.333 -14 20 -31.332 20 -51.999c0 -14 -3 -25.5 -9 -34.5s-15.333 -13.5 -28 -13.5c-10 0 -18.333 3 -25 9s-10 14 -10 24c0 4 0.5 8.5 1.5 13.5s1.5 9.16699 1.5 12.5c0 18 -8.66699 27 -26 27c-21.333 0 -39.333 -14.5 -54 -43.5s-22 -65.5 -22 -109.5v-194
c0 -22 1.66699 -37.833 5 -47.5s9.5 -16.334 18.5 -20.001s24.167 -6.5 45.5 -8.5v-22c-36 4 -68.667 6 -98 6h-6c-26 0 -55.667 -2 -89 -6v22c16.667 2 28.5 4.83301 35.5 8.5s11.833 10.5 14.5 20.5s4 25.667 4 47v274c0 20.667 -1.33301 36 -4 46s-8 17 -16 21
s-20.667 6.66699 -38 8v21c49.333 1.33301 87.333 4 114 8h10v-76c10 25.333 23.5 45 40.5 59s36.167 21 57.5 21c24.667 0 43.667 -7 57 -21z" />
    <glyph glyph-name="s" unicode="s" horiz-adv-x="341" 
d="M309 126c0 -24 -6.00391 -46.4971 -18.0039 -67.4971s-28.5 -37.667 -49.5 -50s-44.167 -18.5 -69.5 -18.5c-21.333 0 -41 4 -59 12s-32 18.667 -42 32l-15 -47h-16v170h19c13.333 -94.667 50 -142 110 -142c26.667 0 47.667 7.5 63 22.5s23 35.167 23 60.5
c0 22 -6.16699 40.333 -18.5 55s-30.833 28.667 -55.5 42l-55 30c-28 15.333 -48.5 32.166 -61.5 50.499s-19.5 44.166 -19.5 77.499c0 25.333 5.83301 47.5 17.5 66.5s26.834 33.5 45.501 43.5s38.334 15 59.001 15c18.667 0 35.834 -4 51.501 -12s28.167 -18 37.5 -30
l16 45h16v-152h-19c-6 36 -17.333 65.667 -34 89s-38 35 -64 35c-23.333 0 -41.666 -7 -54.999 -21s-20 -33.667 -20 -59c0 -19.333 5.33301 -35.333 16 -48s27.667 -25.334 51 -38.001l65 -35c54 -28.667 81 -70.667 81 -126z" />
    <glyph glyph-name="t" unicode="t" horiz-adv-x="273" 
d="M263 47l0.00195312 -30.001c-26 -18 -55.333 -27 -88 -27c-64 0 -96 37 -96 111v338h-70v22c39.333 4.66699 67.666 18.167 84.999 40.5s28.666 56.5 33.999 102.5h21v-136h109v-29h-109v-325c0 -33.333 4.66699 -56.166 14 -68.499s24 -18.5 44 -18.5
s38.667 6.66699 56 20z" />
    <glyph glyph-name="u" unicode="u" horiz-adv-x="447" 
d="M373 54c2.66699 -10 8.00098 -17.001 16.001 -21.001s20.667 -6.66699 38 -8v-21c-49.333 -1.33301 -87.333 -4 -114 -8h-10v75c-10.667 -25.333 -26 -45.166 -46 -59.499s-42.667 -21.5 -68 -21.5c-38 0 -66.833 11.667 -86.5 35s-29.5 56.333 -29.5 99v246
c0 20.667 -1.33301 36 -4 46s-8 17 -16 21s-20.667 6.66699 -38 8v21c49.333 1.33301 87.333 4 114 8h14v-347c0 -33.333 5.5 -57.5 16.5 -72.5s27.167 -22.5 48.5 -22.5c26 0 47.667 11 65 33s26 49.667 26 83v222c0 20.667 -1.5 36 -4.5 46s-8.66699 17 -17 21
s-21.833 6.66699 -40.5 8v21c51.333 1.33301 90.666 4 117.999 8h14v-374c0 -20.667 1.33301 -36 4 -46z" />
    <glyph glyph-name="v" unicode="v" horiz-adv-x="402" 
d="M374.5 466.5c8.33301 1 17.501 2.49805 27.501 4.49805v-22c-14 -2.66699 -24 -5.5 -30 -8.5s-10.833 -7.66699 -14.5 -14s-8.16699 -17.5 -13.5 -33.5l-135 -403h-14l-134 404c-7.33301 22 -16 36.333 -26 43s-22.333 10.667 -37 12v22c37.333 -4 65.333 -6 84 -6
c33.333 0 64.666 2 93.999 6v-22c-18 -1.33301 -30.5 -3.5 -37.5 -6.5s-10.5 -8.5 -10.5 -16.5c0 -4.66699 2.33301 -14.667 7 -30l88 -288l92 285c4 12 6 21.333 6 28c0 8.66699 -3.5 14.834 -10.5 18.501s-19.167 6.83398 -36.5 9.50098v22c25.333 -4 49.333 -6 72 -6
c10.667 0 20.167 0.5 28.5 1.5z" />
    <glyph glyph-name="w" unicode="w" horiz-adv-x="574" 
d="M574 471l0.000976562 -22.001c-14 -2.66699 -24.333 -5.5 -31 -8.5s-11.834 -8 -15.501 -15s-7.5 -18.5 -11.5 -34.5l-95 -401h-14l-123 363l-112 -363h-14l-101 401c-6 23.333 -13.667 38.5 -23 45.5s-21.333 11.167 -36 12.5v22c28 -4 55 -6 81 -6c29.333 0 59 2 89 6
v-22c-19.333 -2 -32 -4.5 -38 -7.5s-9 -8.83301 -9 -17.5c0 -6 1.66699 -16.333 5 -31l64 -262l104 347h14l123 -349l58 262c2.66699 14.667 4 23.334 4 26.001c0 10.667 -3.5 18 -10.5 22s-19.5 7.33301 -37.5 10v22c24.667 -4 48 -6 70 -6c20 0 39.667 2 59 6z" />
    <glyph glyph-name="x" unicode="x" horiz-adv-x="395" 
d="M350.5 35.5c10.333 -7.66699 23.8359 -12.835 40.5029 -15.502v-22c-28 4 -53 6 -75 6c-26 0 -55.667 -2 -89 -6v22c12 1.33301 20.5 3 25.5 5s7.5 5.66699 7.5 11c0 7.33301 -6.66699 24.333 -20 51l-57 114l-59 -107c-16 -28 -24 -46.333 -24 -55
c0 -6 3.16699 -10.333 9.5 -13s16.833 -4.66699 31.5 -6v-22c-26 4 -49.333 6 -70 6c-18.667 0 -39 -2 -61 -6v22c14.667 2 26.167 4.83301 34.5 8.5s16.166 10.334 23.499 20.001s16.666 24.834 27.999 45.501l71 129l-81 160c-10 18.667 -18.667 32.5 -26 41.5
s-14.5 15 -21.5 18s-16.5 5.16699 -28.5 6.5v22c32.667 -4 60.667 -6 84 -6c24 0 51 2 81 6v-22c-13.333 -2 -22.5 -4 -27.5 -6s-7.5 -5.66699 -7.5 -11c0 -4 2 -10.5 6 -19.5s9 -19.167 15 -30.5l47 -94l47 87c16 29.333 24 48.333 24 57c0 6 -3 10 -9 12
s-16.667 3.66699 -32 5v22c26.667 -4 51.334 -6 74.001 -6c19.333 0 40.666 2 63.999 6v-22c-15.333 -2 -27.333 -4.5 -36 -7.5s-17.5 -9.5 -26.5 -19.5s-19.167 -25.667 -30.5 -47l-59 -110l91 -179c13.333 -26 25.166 -42.833 35.499 -50.5z" />
    <glyph glyph-name="y" unicode="y" horiz-adv-x="402" 
d="M403 471l0.00195312 -22.001c-13.333 -2.66699 -23 -5.5 -29 -8.5s-10.833 -7.83301 -14.5 -14.5s-8.5 -18.334 -14.5 -35.001l-167 -470c-13.333 -38 -27.333 -63.833 -42 -77.5s-33.334 -20.5 -56.001 -20.5c-24.667 0 -44.334 6 -59.001 18s-22 27.333 -22 46
c0 24.667 11.333 37 34 37c20.667 0 32.334 -13 35.001 -39c0.666992 -10.667 3.5 -18.334 8.5 -23.001s12.167 -7 21.5 -7c8 0 16.333 4.33301 25 13s18 26.334 28 53.001l40 114l-129 356c-8.66699 23.333 -17.834 38.5 -27.501 45.5s-21.5 11.167 -35.5 12.5v22
c29.333 -4 57.333 -6 84 -6c33.333 0 64.333 2 93 6v-22c-18 -1.33301 -30.5 -3.5 -37.5 -6.5s-10.5 -8.5 -10.5 -16.5c0 -6 2.66699 -17 8 -33l90 -260l90 258c4.66699 12 7 22 7 30c0 8.66699 -3.33301 14.834 -10 18.501s-19 6.83398 -37 9.50098v22c24 -4 46 -6 66 -6
c20.667 0 41 2 61 6z" />
    <glyph glyph-name="z" unicode="z" horiz-adv-x="354" 
d="M329 147l-26 -146.998h-285v8l225 436h-75c-23.333 0 -41.5 -2.83301 -54.5 -8.5s-23.833 -16.334 -32.5 -32.001s-17.334 -39.834 -26.001 -72.501h-21l26 137h268v-8l-225 -436h92c23.333 0 41.5 3.16699 54.5 9.5s23.833 18 32.5 35s17.334 43.167 26.001 78.5h21z
" />
    <glyph glyph-name="braceleft" unicode="{" horiz-adv-x="257" 
d="M78 -32c0 34 5.33301 73.668 16 119.001c9.33301 41.333 14 72 14 92c0 29.333 -7.5 50 -22.5 62s-41.833 18 -80.5 18v22c38 0 64.667 6 80 18s23 33 23 63c0 19.333 -4.66699 49.666 -14 90.999c-10.667 45.333 -16 85 -16 119c0 96.667 53.667 145 161 145v-22
c-30 0 -53 -9.5 -69 -28.5s-24 -43.167 -24 -72.5c0 -26.667 4.66699 -61.667 14 -105c10 -48.667 15 -86 15 -112c0 -30 -7.33301 -53.667 -22 -71s-38.334 -29.333 -71.001 -36c32.667 -6.66699 56.334 -18.5 71.001 -35.5s22 -40.5 22 -70.5
c0 -26.667 -5 -64.334 -15 -113.001c-9.33301 -43.333 -14 -78.666 -14 -105.999c0 -29.333 8 -53.5 24 -72.5s39 -28.5 69 -28.5v-22c-107.333 0 -161 48.667 -161 146z" />
    <glyph glyph-name="bar" unicode="|" horiz-adv-x="186" 
d="M110 738v-838h-34v838h34z" />
    <glyph glyph-name="braceright" unicode="}" horiz-adv-x="257" 
d="M18 -156c30 0 53 9.49902 69 28.499s24 43.167 24 72.5c0 27.333 -4.66699 62.666 -14 105.999c-10 48.667 -15 86.334 -15 113.001c0 30 7.33301 53.5 22 70.5s38.334 28.833 71.001 35.5c-32.667 6.66699 -56.334 18.667 -71.001 36s-22 41 -22 71
c0 26 5 63.333 15 112c9.33301 43.333 14 78.333 14 105c0 29.333 -8 53.5 -24 72.5s-39 28.5 -69 28.5v22c107.333 0 161 -48.333 161 -145c0 -34 -5.33301 -73.667 -16 -119c-9.33301 -41.333 -14 -71.666 -14 -90.999c0 -30 7.66699 -51 23 -63s42 -18 80 -18v-22
c-38.667 0 -65.5 -6 -80.5 -18s-22.5 -32.667 -22.5 -62c0 -20 4.66699 -50.667 14 -92c10.667 -45.333 16 -85 16 -119c0 -97.333 -53.667 -146 -161 -146v22z" />
    <glyph glyph-name="asciitilde" unicode="~" 
d="M252.5 244.5c-11 5.66699 -27.167 16.5 -48.5 32.5l-17 13c-14 10.667 -27 16 -39 16c-25.333 0 -41 -20.333 -47 -61h-22c5.33301 76 32 114 80 114c14 0 26.333 -2.5 37 -7.5s24 -13.833 40 -26.5l20 -16c15.333 -12.667 28 -19 38 -19c25.333 0 41 20 47 60h22
c-4.66699 -76 -29.667 -114 -75 -114c-12.667 0 -24.5 2.83301 -35.5 8.5z" />
    <glyph glyph-name="uni00A0" unicode="&#xa0;" horiz-adv-x="184" 
 />
    <glyph glyph-name="exclamdown" unicode="&#xa1;" horiz-adv-x="202" 
d="M137 463.5c9.33301 -9.66699 14 -21.834 14 -36.501s-4.66699 -26.834 -14 -36.501s-21.333 -14.5 -36 -14.5s-26.667 4.83301 -36 14.5s-14 21.834 -14 36.501s4.66699 26.834 14 36.501s21.333 14.5 36 14.5s26.667 -4.83301 36 -14.5zM132.5 -164.5
c-7.66699 -9 -18.167 -13.5 -31.5 -13.5s-23.833 4.5 -31.5 13.5s-11.167 21.167 -10.5 36.5l29 417h26l29 -417c0.666992 -15.333 -2.83301 -27.5 -10.5 -36.5z" />
    <glyph glyph-name="cent" unicode="&#xa2;" 
d="M332.5 146.5c-19 -28.333 -44.166 -45.833 -75.499 -52.5v-94h-30v92c-48 2 -85.5 25.833 -112.5 71.5s-40.5 102.834 -40.5 171.501c0 46 6.83301 86.833 20.5 122.5s32 63.834 55 84.501s48.833 33 77.5 37v89h30v-89c27.333 -2.66699 50.666 -15.667 69.999 -39l16 43
h16v-167h-19c-7.33301 43.333 -17.5 76.166 -30.5 98.499s-30.5 35.5 -52.5 39.5v-431c23.333 3.33301 42.5 16.666 57.5 39.999s23.833 55.333 26.5 96h25c-3.33301 -46.667 -14.5 -84.167 -33.5 -112.5zM168.001 190c13.333 -36 33 -57.666 59 -64.999v428
c-26 -6.66699 -45.667 -28.834 -59 -66.501s-20 -88.167 -20 -151.5c0 -60.667 6.66699 -109 20 -145z" />
    <glyph glyph-name="sterling" unicode="&#xa3;" 
d="M432 124c-12 -39.333 -27.9951 -71.5 -47.9951 -96.5s-42.667 -37.5 -68 -37.5c-22 0 -54.667 7 -98 21c-21.333 6.66699 -39 11.834 -53 15.501s-27 5.5 -39 5.5c-20 0 -37.167 -2.66699 -51.5 -8s-31.5 -14.666 -51.5 -27.999l-13 25c32.667 14.667 58.667 37 78 67
s29 67 29 111c0 21.333 -1 40.333 -3 57s-7 42.667 -15 78h-87v28h80c-6.66699 31.333 -11.334 57.166 -14.001 77.499s-4 42.166 -4 65.499c0 61.333 17 105.5 51 132.5s76 40.5 126 40.5c40 0 72.667 -9 98 -27s38 -41 38 -69c0 -9.33301 -3.16699 -17.5 -9.5 -24.5
s-14.5 -10.5 -24.5 -10.5c-10.667 0 -18.834 3.83301 -24.501 11.5s-8.5 18.167 -8.5 31.5c0 19.333 -5.33301 34.666 -16 45.999s-27.334 17 -50.001 17c-30.667 0 -54.834 -11 -72.501 -33s-26.5 -56 -26.5 -102c0 -43.333 3.66699 -88 11 -134
c1.33301 -9.33301 2.66602 -16.666 3.99902 -21.999h182v-28h-178c3.33301 -22.667 5.83301 -41.167 7.5 -55.5s2.5 -28.166 2.5 -41.499c0 -30.667 -5.33301 -59.334 -16 -86.001s-24.334 -49 -41.001 -67c10 4 19.667 6 29 6c20 0 50 -4.66699 90 -14
c34.667 -8.66699 62.667 -13 84 -13c22.667 0 40.334 4.83301 53.001 14.5s23 27.167 31 52.5z" />
    <glyph glyph-name="currency" unicode="&#xa4;" 
d="M337 194l78 -86l-23 -20l-72 83c-26 -29.333 -59.333 -44 -100 -44s-74 14.667 -100 44l-72 -83l-23 20l78 86c-22.667 36.667 -34 83.334 -34 140.001s11.333 103.334 34 140.001l-78 86l23 20l72 -83c26 29.333 59.333 44 100 44s74 -14.667 100 -44l72 83l23 -20
l-78 -86c22.667 -36.667 34 -83.334 34 -140.001s-11.333 -103.334 -34 -140.001zM306.5 204c21 32.667 31.5 76 31.5 130s-10.5 97.333 -31.5 130s-49.833 49 -86.5 49s-65.5 -16.333 -86.5 -49s-31.5 -76 -31.5 -130s10.5 -97.333 31.5 -130s49.833 -49 86.5 -49
s65.5 16.333 86.5 49z" />
    <glyph glyph-name="yen" unicode="&#xa5;" 
d="M446 669l-0.00195312 -22.002c-16.667 -1.33301 -29.167 -3.33301 -37.5 -6s-16 -9.16699 -23 -19.5s-15.167 -27.166 -24.5 -50.499l-95 -240h111v-28h-114v-82h114v-28h-114v-87c0 -25.333 1.66699 -43.5 5 -54.5s9.5 -18.5 18.5 -22.5s24.167 -7 45.5 -9v-22
c-47.333 4 -83 6 -107 6c-28.667 0 -63.667 -2 -105 -6v22c22 2 37.5 5 46.5 9s15.167 11.5 18.5 22.5s5 29.167 5 54.5v87h-117v28h117v82h-117v28h107l-106 241c-10 22 -18.333 37.833 -25 47.5s-13.834 16.167 -21.501 19.5s-19.167 6 -34.5 8v22
c43.333 -3.33301 75.333 -5 96 -5s54.334 1.66699 101.001 5v-22c-20 -1.33301 -33.833 -3.5 -41.5 -6.5s-11.5 -8.16699 -11.5 -15.5c0 -8.66699 5.66699 -26 17 -52l95 -216l84 214c10 25.333 15 43 15 53c0 8.66699 -3.5 14.334 -10.5 17.001s-20.167 4.66699 -39.5 6v22
c30.667 -3.33301 58.334 -5 83.001 -5c14.667 0 36.334 1.66699 65.001 5z" />
    <glyph glyph-name="brokenbar" unicode="&#xa6;" horiz-adv-x="186" 
d="M110 738v-327h-34v327h34zM110 227v-327h-34v327h34z" />
    <glyph glyph-name="section" unicode="&#xa7;" horiz-adv-x="394" 
d="M334 37c0 -24 -6.33398 -46.501 -19.001 -67.501s-29.667 -37.667 -51 -50s-44.666 -18.5 -69.999 -18.5c-21.333 0 -41 4 -59 12s-32 18.667 -42 32l-15 -47h-16v170h19c6 -44.667 18.333 -79.5 37 -104.5s44 -37.5 76 -37.5c24.667 0 45.167 7.5 61.5 22.5
s24.5 35.167 24.5 60.5c0 24 -6.83301 44.5 -20.5 61.5s-32.834 32.5 -57.501 46.5l-52 30c-26.667 15.333 -47.5 28.833 -62.5 40.5s-27.167 26 -36.5 43s-14 38.167 -14 63.5c0 52 29.667 95.667 89 131c-38 30 -57 69.333 -57 118c0 42 12.5 75 37.5 99s54.5 36 88.5 36
c19.333 0 36.833 -4 52.5 -12s28.167 -18 37.5 -30l16 46h16v-153h-19c-6 36 -17.5 65.667 -34.5 89s-39.167 35 -66.5 35c-22 0 -40.333 -7.83301 -55 -23.5s-22 -36.167 -22 -61.5c0 -22 6.5 -41.167 19.5 -57.5s31.167 -31.166 54.5 -44.499l66 -37
c32 -18 56.5 -38 73.5 -60s25.5 -49 25.5 -81c0 -28 -7.16699 -53.5 -21.5 -76.5s-34.166 -42.167 -59.499 -57.5c37.333 -30.667 56 -69.667 56 -117zM256.999 167.999c32 23.333 48 53.3311 48 89.998c0 26 -8.16699 47.333 -24.5 64s-38.833 33.334 -67.5 50.001l-64 37
c-40.667 -25.333 -61 -56.333 -61 -93c0 -23.333 7.5 -42.166 22.5 -56.499s40.5 -31.5 76.5 -51.5c40.667 -22 64 -35.333 70 -40z" />
    <glyph glyph-name="dieresis" unicode="&#xa8;" horiz-adv-x="320" 
d="M60 565.5c-8 8.33301 -12 18.833 -12 31.5s4 23.167 12 31.5s18.333 12.5 31 12.5c13.333 0 24 -4.16699 32 -12.5s12 -18.833 12 -31.5s-4 -23.167 -12 -31.5s-18.667 -12.5 -32 -12.5c-12.667 0 -23 4.16699 -31 12.5zM197 565.5c-8 8.33301 -12 18.833 -12 31.5
s4 23.167 12 31.5s18.667 12.5 32 12.5c12.667 0 23 -4.16699 31 -12.5s12 -18.833 12 -31.5s-4 -23.167 -12 -31.5s-18.333 -12.5 -31 -12.5c-13.333 0 -24 4.16699 -32 12.5z" />
    <glyph glyph-name="copyright" unicode="&#xa9;" horiz-adv-x="608" 
d="M440.5 628.5c39.667 -26.333 70.834 -64.5 93.501 -114.5s34 -109.667 34 -179s-11.333 -129.333 -34 -180s-53.834 -89.167 -93.501 -115.5s-84.834 -39.5 -135.501 -39.5c-51.333 0 -97 13.167 -137 39.5s-71.333 64.833 -94 115.5s-34 110.667 -34 180
s11.333 129 34 179s54 88.167 94 114.5s85.667 39.5 137 39.5c50.667 0 95.834 -13.167 135.501 -39.5zM425 62.5c35.333 24.333 63 59.833 83 106.5s30 102 30 166c0 63.333 -10 118.166 -30 164.499s-47.667 81.666 -83 105.999s-75.333 36.5 -120 36.5
c-45.333 0 -85.833 -12.167 -121.5 -36.5s-63.5 -59.666 -83.5 -105.999s-30 -101.166 -30 -164.499c0 -64 10 -119.333 30 -166s47.833 -82.167 83.5 -106.5s76.167 -36.5 121.5 -36.5c44.667 0 84.667 12.167 120 36.5zM380.5 188c15 18 23.832 46 26.499 84h19
c-2.66699 -44.667 -14.167 -78.5 -34.5 -101.5s-46.166 -34.5 -77.499 -34.5c-43.333 0 -79 17.167 -107 51.5s-42 84.166 -42 149.499c0 44 6.83301 81.167 20.5 111.5s31.834 53 54.501 68s48 22.5 76 22.5c17.333 0 32.833 -3.66699 46.5 -11s24.5 -16.666 32.5 -27.999
l11 39h13v-120h-14c-14.667 66.667 -42.667 100 -84 100c-30 0 -52.5 -16 -67.5 -48s-22.5 -76.667 -22.5 -134s7.66699 -101 23 -131s38.666 -45 69.999 -45c22.667 0 41.5 9 56.5 27z" />
    <glyph glyph-name="ordfeminine" unicode="&#xaa;" horiz-adv-x="322" 
d="M261 365.5c5.33301 -5 15.001 -7.50293 29.001 -7.50293v-18c-14.667 -3.33301 -28 -5 -40 -5c-14 0 -25.167 4.16699 -33.5 12.5s-12.5 20.5 -12.5 36.5v7c-6.66699 -19.333 -17 -34 -31 -44s-30 -15 -48 -15c-28.667 0 -50.834 8.5 -66.501 25.5s-23.5 39.5 -23.5 67.5
c0 30.667 9.16699 53.834 27.5 69.501s47.833 29.5 88.5 41.5c8.66699 2.66699 23.667 6.66699 45 12v49c0 20.667 -4 36.334 -12 47.001s-19.333 16 -34 16s-26 -5.16699 -34 -15.5s-12 -25.833 -12 -46.5c0 -18.667 -8.66699 -28 -26 -28s-26 8.66699 -26 26
c0 22.667 9.83301 42 29.5 58s43.167 24 70.5 24c31.333 0 56 -9.16699 74 -27.5s27 -43.166 27 -74.499v-180c0 -15.333 2.66699 -25.5 8 -30.5zM181.001 383.497c10 13.667 14.999 33.834 14.999 60.501v82c-8.66699 -2 -21.667 -5.66699 -39 -11
c-24 -8 -40.333 -18.833 -49 -32.5s-13 -31.834 -13 -54.501c0 -21.333 4.33301 -37.5 13 -48.5s20.334 -16.5 35.001 -16.5c15.333 0 28 6.83301 38 20.5z" />
    <glyph glyph-name="guillemotleft" unicode="&#xab;" horiz-adv-x="341" 
d="M145 435h23l-67 -183l67 -189h-23l-117 189zM275 435h23l-68 -183l68 -189h-23l-117 189z" />
    <glyph glyph-name="logicalnot" unicode="&#xac;" 
d="M386 314v-198h-32v168h-300v30h332z" />
    <glyph glyph-name="uni00AD" unicode="&#xad;" horiz-adv-x="305" 
d="M253 298v-40h-201v40h201z" />
    <glyph glyph-name="registered" unicode="&#xae;" horiz-adv-x="452" 
d="M323.5 653.5c29 -16.333 51.833 -39.333 68.5 -69s25 -64.5 25 -104.5s-8.33301 -75 -25 -105s-39.5 -53 -68.5 -69s-61.5 -24 -97.5 -24s-68.5 8 -97.5 24s-51.833 39 -68.5 69s-25 65 -25 105s8.33301 74.833 25 104.5s39.5 52.667 68.5 69s61.5 24.5 97.5 24.5
s68.5 -8.16699 97.5 -24.5zM311 324.5c25.333 14.333 45.166 34.833 59.499 61.5s21.5 58 21.5 94c0 35.333 -7.16699 66.5 -21.5 93.5s-34.166 47.667 -59.499 62s-53.666 21.5 -84.999 21.5s-59.666 -7.16699 -84.999 -21.5s-45.166 -35 -59.499 -62
s-21.5 -58.167 -21.5 -93.5c0 -36 7.16699 -67.333 21.5 -94s34.166 -47.167 59.499 -61.5s53.666 -21.5 84.999 -21.5s59.666 7.16699 84.999 21.5zM317.5 374.5c5 -3 11.501 -4.50098 19.501 -4.50098v-9c-4.66699 -2 -13.667 -3 -27 -3c-12.667 0 -22.667 2.33301 -30 7
s-14.333 15 -21 31l-17 42c-6.66699 16 -13 26.833 -19 32.5s-14.667 8.83398 -26 9.50098v-82c0 -10.667 1.66699 -17.5 5 -20.5s11 -5.16699 23 -6.5v-13c-17.333 2 -35.333 3 -54 3c-16.667 0 -31.334 -0.666992 -44.001 -2v12c12 1.33301 19.667 3.5 23 6.5
s5 9.83301 5 20.5v178c0 10 -1.5 16.5 -4.5 19.5s-9.16699 5.16699 -18.5 6.5v12h88c26.667 0 47.167 -5.5 61.5 -16.5s21.5 -27.5 21.5 -49.5c0 -18 -6.16699 -32.833 -18.5 -44.5s-29.5 -18.167 -51.5 -19.5c25.333 -2.66699 43 -16.667 53 -42l18 -46
c4 -11.333 8.5 -18.5 13.5 -21.5zM197.001 598.999v-105.999h11c15.333 0 27 4.66699 35 14s12 22.666 12 39.999c0 34.667 -16 52 -48 52h-10z" />
    <glyph glyph-name="macron" unicode="&#xaf;" horiz-adv-x="320" 
d="M270 595v-35h-221v35h221z" />
    <glyph glyph-name="degree" unicode="&#xb0;" horiz-adv-x="302" 
d="M64.5 463c-21.667 23.333 -32.5 53.333 -32.5 90s10.833 66.667 32.5 90s50.5 35 86.5 35s64.833 -11.667 86.5 -35s32.5 -53.333 32.5 -90s-10.833 -66.667 -32.5 -90s-50.5 -35 -86.5 -35s-64.833 11.667 -86.5 35zM213.5 483c15.667 18 23.5 41.333 23.5 70
s-7.83301 52 -23.5 70s-36.5 27 -62.5 27s-46.833 -9 -62.5 -27s-23.5 -41.333 -23.5 -70s7.83301 -52 23.5 -70s36.5 -27 62.5 -27s46.833 9 62.5 27z" />
    <glyph glyph-name="plusminus" unicode="&#xb1;" 
d="M388 347v-30h-152v-164h-32v164h-152v30h152v164h32v-164h152zM52 101h336v-30h-336v30z" />
    <glyph glyph-name="uni00B2" unicode="&#xb2;" horiz-adv-x="280" 
d="M248 386l-14 -105.001h-204v37c51.333 42.667 87.666 83 108.999 121s32 81 32 129c0 26.667 -4.33301 47.834 -13 63.501s-21.334 23.5 -38.001 23.5c-17.333 0 -32.166 -9 -44.499 -27s-17.166 -42.333 -14.499 -73h-22c-2.66699 39.333 5.33301 69.666 24 90.999
s43 32 73 32c30.667 0 55 -10.667 73 -32s27 -46.666 27 -75.999c0 -35.333 -13.167 -71.5 -39.5 -108.5s-65.5 -78.833 -117.5 -125.5h107c14 0 23.833 3.16699 29.5 9.5s11.167 19.833 16.5 40.5h16z" />
    <glyph glyph-name="uni00B3" unicode="&#xb3;" horiz-adv-x="281" 
d="M218.5 458c18.333 -18 27.5 -43.667 27.5 -77c0 -31.333 -11 -57.5 -33 -78.5s-49.667 -31.5 -83 -31.5c-30.667 0 -55.167 9.33301 -73.5 28s-27.5 44.667 -27.5 78h22c0 -28.667 7 -49.5 21 -62.5s29.667 -19.5 47 -19.5c41.333 0 62 30.667 62 92
c0 28 -5.83301 50.333 -17.5 67s-29.167 25 -52.5 25h-15v19h18c19.333 0 34 7.16699 44 21.5s15 34.166 15 59.499c0 50.667 -17 76 -51 76c-16.667 0 -30.5 -6.66699 -41.5 -20s-16.5 -31.666 -16.5 -54.999h-21c0 28.667 8.5 52.167 25.5 70.5s39.167 27.5 66.5 27.5
c28.667 0 52.5 -8.5 71.5 -25.5s28.5 -39.833 28.5 -68.5c0 -25.333 -8.33301 -46 -25 -62s-37 -26.667 -61 -32c28 -3.33301 51.167 -14 69.5 -32z" />
    <glyph glyph-name="acute" unicode="&#xb4;" horiz-adv-x="320" 
d="M168 669c9.33301 15.333 20.667 22.999 34 22.999c9.33301 0 17.5 -3.33301 24.5 -10s10.5 -15 10.5 -25c0 -9.33301 -4 -17.666 -12 -24.999l-108 -98h-27z" />
    <glyph glyph-name="uni00B5" unicode="&#xb5;" horiz-adv-x="438" 
d="M423 31c-8 -9.33301 -18.666 -17.668 -31.999 -25.001s-28.333 -11 -45 -11c-20 0 -33.833 5.83301 -41.5 17.5s-12.167 30.834 -13.5 57.501c-10 -22 -24 -40.667 -42 -56s-41.333 -23 -70 -23c-44.667 0 -76 20.333 -94 61c0.666992 -37.333 2.16699 -65.5 4.5 -84.5
s6.33301 -33.5 12 -43.5s14.5 -20 26.5 -30c8.66699 -7.33301 14.667 -14 18 -20s5 -12.667 5 -20c0 -9.33301 -3.33301 -17 -10 -23s-14.334 -9 -23.001 -9c-17.333 0 -31 9.5 -41 28.5s-15 55.167 -15 108.5v506l70 8v-351c0 -34 5.66699 -57.5 17 -70.5
s27.333 -19.5 48 -19.5c26 0 47.667 11 65 33s26 49.667 26 83v317l70 8v-373c0 -24.667 1.5 -42 4.5 -52s8.5 -15 16.5 -15c12 0 23.333 5.33301 34 16z" />
    <glyph glyph-name="paragraph" unicode="&#xb6;" horiz-adv-x="469" 
d="M439 646c-20 -1.33301 -34.333 -3.83301 -43 -7.5s-14.667 -10.667 -18 -21s-5 -27.5 -5 -51.5v-734h-44v808h-72v-808h-44v452h-19c-53.333 0 -95.333 16.333 -126 49s-46 80.667 -46 144c0 62 15.333 109.333 46 142s72.667 49 126 49h245v-22z" />
    <glyph glyph-name="periodcentered" unicode="&#xb7;" horiz-adv-x="194" 
d="M61 238.5c-9.33301 9.66699 -14 21.834 -14 36.501s4.66699 26.834 14 36.501s21.333 14.5 36 14.5s26.667 -4.83301 36 -14.5s14 -21.834 14 -36.501s-4.66699 -26.834 -14 -36.501s-21.333 -14.5 -36 -14.5s-26.667 4.83301 -36 14.5z" />
    <glyph glyph-name="cedilla" unicode="&#xb8;" horiz-adv-x="320" 
d="M214 -64.5c11.333 -11.667 17 -27.498 17 -47.498s-7 -35.833 -21 -47.5s-32.333 -17.5 -55 -17.5c-13.333 0 -24.833 2.66699 -34.5 8s-18.834 13.666 -27.501 24.999l14 13c6.66699 -8.66699 13 -14.834 19 -18.501s13 -5.5 21 -5.5c12 0 21.5 3.83301 28.5 11.5
s10.5 18.167 10.5 31.5s-3.33301 23.833 -10 31.5s-15.334 11.5 -26.001 11.5c-5.33301 0 -10.666 -1.5 -15.999 -4.5s-9.33301 -6.83301 -12 -11.5l-15 8l50 91l23 -1l-36 -66c6.66699 4 15.334 6 26.001 6c18 0 32.667 -5.83301 44 -17.5z" />
    <glyph glyph-name="uni00B9" unicode="&#xb9;" horiz-adv-x="223" 
d="M162 309c6.66699 -4.66699 21.6689 -7.66699 45.002 -9v-20c-32.667 2.66699 -61.334 4 -86.001 4c-23.333 0 -53.333 -1.33301 -90 -4v20c25.333 1.33301 41.666 4.33301 48.999 9s11 15 11 31v257c-18.667 -6 -39 -9.33301 -61 -10v20c55.333 4 89 27.667 101 71h21
v-338c0 -16 3.33301 -26.333 10 -31z" />
    <glyph glyph-name="ordmasculine" unicode="&#xba;" horiz-adv-x="316" 
d="M71 375c-24 28.667 -36 72 -36 130s12 101.333 36 130s53 43 87 43s63 -14.333 87 -43s36 -72 36 -130s-12 -101.333 -36 -130s-53 -43 -87 -43s-63 14.333 -87 43zM206 388c10 24.667 15.002 63.667 15.002 117c0 54 -4.83301 93.167 -14.5 117.5
s-25.834 36.5 -48.501 36.5s-38.834 -12.167 -48.501 -36.5s-14.5 -63.5 -14.5 -117.5c0 -53.333 5 -92.333 15 -117s26 -37 48 -37s38 12.333 48 37z" />
    <glyph glyph-name="guillemotright" unicode="&#xbb;" horiz-adv-x="341" 
d="M63 63h-23l68 189l-68 183h23l117 -183zM193 63h-23l67 189l-67 183h23l117 -183z" />
    <glyph glyph-name="onequarter" unicode="&#xbc;" horiz-adv-x="599" 
d="M162 309c6.66699 -4.66699 21.6689 -7.66699 45.002 -9v-20c-32.667 2.66699 -61.334 4 -86.001 4c-23.333 0 -53.333 -1.33301 -90 -4v20c25.333 1.33301 41.666 4.33301 48.999 9s11 15 11 31v257c-18.667 -6 -39 -9.33301 -61 -10v20c55.333 4 89 27.667 101 71h21
v-338c0 -16 3.33301 -26.333 10 -31zM144.002 0h-38l360 668h39zM521.002 57c0 -12 1.00098 -20.499 3.00098 -25.499s5.66699 -8.16699 11 -9.5s14.333 -2.33301 27 -3v-20c-32.667 2.66699 -54.334 4 -65.001 4h-16c-6 0 -20.333 -0.666992 -43 -2l-20 -2v20
c14 1.33301 23.833 2.66602 29.5 3.99902s9.66699 4.5 12 9.5s3.5 13.167 3.5 24.5v48h-131v20l137 262h52v-258h54v-24h-54v-48zM463.003 329.001l-104 -200h104v200z" />
    <glyph glyph-name="onehalf" unicode="&#xbd;" horiz-adv-x="637" 
d="M162 309c6.66699 -4.66699 21.6689 -7.66699 45.002 -9v-20c-32.667 2.66699 -61.334 4 -86.001 4c-23.333 0 -53.333 -1.33301 -90 -4v20c25.333 1.33301 41.666 4.33301 48.999 9s11 15 11 31v257c-18.667 -6 -39 -9.33301 -61 -10v20c55.333 4 89 27.667 101 71h21
v-338c0 -16 3.33301 -26.333 10 -31zM144.002 0h-38l360 668h39zM605.002 105l-14 -105.001h-204v37c51.333 42.667 87.666 83 108.999 121s32 81 32 129c0 26.667 -4.33301 47.834 -13 63.501s-21.334 23.5 -38.001 23.5c-17.333 0 -32.166 -9 -44.499 -27
s-17.166 -42.333 -14.499 -73h-22c-2.66699 39.333 5.33301 69.666 24 90.999s43 32 73 32c30.667 0 55 -10.667 73 -32s27 -46.666 27 -75.999c0 -35.333 -13.167 -71.5 -39.5 -108.5s-65.5 -78.833 -117.5 -125.5h107c14 0 23.833 3.16699 29.5 9.5
s11.167 19.833 16.5 40.5h16z" />
    <glyph glyph-name="threequarters" unicode="&#xbe;" horiz-adv-x="623" 
d="M218.5 458c18.333 -18 27.5 -43.667 27.5 -77c0 -31.333 -11 -57.5 -33 -78.5s-49.667 -31.5 -83 -31.5c-30.667 0 -55.167 9.33301 -73.5 28s-27.5 44.667 -27.5 78h22c0 -28.667 7 -49.5 21 -62.5s29.667 -19.5 47 -19.5c41.333 0 62 30.667 62 92
c0 28 -5.83301 50.333 -17.5 67s-29.167 25 -52.5 25h-15v19h18c19.333 0 34 7.16699 44 21.5s15 34.166 15 59.499c0 50.667 -17 76 -51 76c-16.667 0 -30.5 -6.66699 -41.5 -20s-16.5 -31.666 -16.5 -54.999h-21c0 28.667 8.5 52.167 25.5 70.5s39.167 27.5 66.5 27.5
c28.667 0 52.5 -8.5 71.5 -25.5s28.5 -39.833 28.5 -68.5c0 -25.333 -8.33301 -46 -25 -62s-37 -26.667 -61 -32c28 -3.33301 51.167 -14 69.5 -32zM168 0h-38l360 668h39zM545 57c0 -12 1.00098 -20.499 3.00098 -25.499s5.66699 -8.16699 11 -9.5s14.333 -2.33301 27 -3
v-20c-32.667 2.66699 -54.334 4 -65.001 4h-16c-6 0 -20.333 -0.666992 -43 -2l-20 -2v20c14 1.33301 23.833 2.66602 29.5 3.99902s9.66699 4.5 12 9.5s3.5 13.167 3.5 24.5v48h-131v20l137 262h52v-258h54v-24h-54v-48zM487.001 329.001l-104 -200h104v200z" />
    <glyph glyph-name="questiondown" unicode="&#xbf;" horiz-adv-x="334" 
d="M157 390.5c-9.33301 9.66699 -14 21.834 -14 36.501s4.66699 26.834 14 36.501s21.333 14.5 36 14.5s26.667 -4.83301 36 -14.5s14 -21.834 14 -36.501s-4.66699 -26.834 -14 -36.501s-21.333 -14.5 -36 -14.5s-26.667 4.83301 -36 14.5zM313 -38
c0 -40.667 -11.832 -74.1689 -35.499 -100.502s-56.5 -39.5 -98.5 -39.5c-32.667 0 -60.667 6.83301 -84 20.5s-41 32 -53 55s-18 47.833 -18 74.5c0 50.667 14.5 92.334 43.5 125.001s66.5 55.667 112.5 69v123h27v-141c-36 -12 -62.833 -31.833 -80.5 -59.5
s-26.5 -65.167 -26.5 -112.5c0 -35.333 7.16699 -65.5 21.5 -90.5s38.166 -37.5 71.499 -37.5c28 0 50.833 10.833 68.5 32.5s26.5 48.834 26.5 81.501h25z" />
    <glyph glyph-name="Agrave" unicode="&#xc0;" horiz-adv-x="497" 
d="M453 48.5c5.33301 -10.333 11.6689 -17.168 19.002 -20.501s19.333 -6 36 -8v-22c-42.667 4 -74.334 6 -95.001 6c-22 0 -57 -2 -105 -6v22c21.333 2 35.833 5 43.5 9s11.5 11.667 11.5 23c0 12.667 -3.33301 29.334 -10 50.001l-31 102h-192l-29 -102
c-6.66699 -24.667 -10 -41 -10 -49c0 -12 4 -20 12 -24s22.333 -7 43 -9v-22c-36 4 -63.333 6 -82 6c-12 0 -25.167 -0.833008 -39.5 -2.5s-23.833 -2.83398 -28.5 -3.50098v22c16.667 2 29.167 5.16699 37.5 9.5s15.166 11.833 20.499 22.5s11.333 27.334 18 50.001
l163 576h12l186 -577c8 -24.667 14.667 -42.167 20 -52.5zM313.003 231.998l-90 294l-85 -294h175zM263.003 733.998l-105.002 59.001c-12.667 7.33301 -21 14.166 -25 20.499s-6 12.833 -6 19.5c0 10 3.33301 18.333 10 25s14.334 10 23.001 10
s15.834 -1.83301 21.501 -5.5s12.5 -10.5 20.5 -20.5l90 -108h-29z" />
    <glyph glyph-name="Aacute" unicode="&#xc1;" horiz-adv-x="497" 
d="M453 48.5c5.33301 -10.333 11.6689 -17.168 19.002 -20.501s19.333 -6 36 -8v-22c-42.667 4 -74.334 6 -95.001 6c-22 0 -57 -2 -105 -6v22c21.333 2 35.833 5 43.5 9s11.5 11.667 11.5 23c0 12.667 -3.33301 29.334 -10 50.001l-31 102h-192l-29 -102
c-6.66699 -24.667 -10 -41 -10 -49c0 -12 4 -20 12 -24s22.333 -7 43 -9v-22c-36 4 -63.333 6 -82 6c-12 0 -25.167 -0.833008 -39.5 -2.5s-23.833 -2.83398 -28.5 -3.50098v22c16.667 2 29.167 5.16699 37.5 9.5s15.166 11.833 20.499 22.5s11.333 27.334 18 50.001
l163 576h12l186 -577c8 -24.667 14.667 -42.167 20 -52.5zM313.003 231.998l-90 294l-85 -294h175zM280.003 841.998c8 10 14.8311 16.832 20.498 20.499s12.834 5.5 21.501 5.5s16.334 -3.33301 23.001 -10s10 -15 10 -25c0 -6.66699 -2 -13.167 -6 -19.5
s-12.333 -13.166 -25 -20.499l-105 -59h-29z" />
    <glyph glyph-name="Acircumflex" unicode="&#xc2;" horiz-adv-x="497" 
d="M453 48.5c5.33301 -10.333 11.6689 -17.168 19.002 -20.501s19.333 -6 36 -8v-22c-42.667 4 -74.334 6 -95.001 6c-22 0 -57 -2 -105 -6v22c21.333 2 35.833 5 43.5 9s11.5 11.667 11.5 23c0 12.667 -3.33301 29.334 -10 50.001l-31 102h-192l-29 -102
c-6.66699 -24.667 -10 -41 -10 -49c0 -12 4 -20 12 -24s22.333 -7 43 -9v-22c-36 4 -63.333 6 -82 6c-12 0 -25.167 -0.833008 -39.5 -2.5s-23.833 -2.83398 -28.5 -3.50098v22c16.667 2 29.167 5.16699 37.5 9.5s15.166 11.833 20.499 22.5s11.333 27.334 18 50.001
l163 576h12l186 -577c8 -24.667 14.667 -42.167 20 -52.5zM313.003 231.998l-90 294l-85 -294h175zM340.003 742.998l-99 60l-99 -60h-29l108 115h41l107 -115h-29z" />
    <glyph glyph-name="Atilde" unicode="&#xc3;" horiz-adv-x="497" 
d="M453 48.5c5.33301 -10.333 11.6689 -17.168 19.002 -20.501s19.333 -6 36 -8v-22c-42.667 4 -74.334 6 -95.001 6c-22 0 -57 -2 -105 -6v22c21.333 2 35.833 5 43.5 9s11.5 11.667 11.5 23c0 12.667 -3.33301 29.334 -10 50.001l-31 102h-192l-29 -102
c-6.66699 -24.667 -10 -41 -10 -49c0 -12 4 -20 12 -24s22.333 -7 43 -9v-22c-36 4 -63.333 6 -82 6c-12 0 -25.167 -0.833008 -39.5 -2.5s-23.833 -2.83398 -28.5 -3.50098v22c16.667 2 29.167 5.16699 37.5 9.5s15.166 11.833 20.499 22.5s11.333 27.334 18 50.001
l163 576h12l186 -577c8 -24.667 14.667 -42.167 20 -52.5zM313.003 231.998l-90 294l-85 -294h175zM266.003 750.498c-11.333 5 -25.333 12.5 -42 22.5c-23.333 14.667 -41.333 22 -54 22c-22.667 0 -37.667 -15.667 -45 -47h-21c3.33301 38.667 12.166 65.167 26.499 79.5
s30.833 21.5 49.5 21.5c12 0 23.833 -2.5 35.5 -7.5s25.167 -12.5 40.5 -22.5c12.667 -8 23.167 -13.667 31.5 -17s16.5 -5 24.5 -5c22 0 36.667 15.667 44 47h21c-3.33301 -38.667 -12.166 -65.167 -26.499 -79.5s-30.5 -21.5 -48.5 -21.5c-12.667 0 -24.667 2.5 -36 7.5z
" />
    <glyph glyph-name="Adieresis" unicode="&#xc4;" horiz-adv-x="497" 
d="M453 48.5c5.33301 -10.333 11.6689 -17.168 19.002 -20.501s19.333 -6 36 -8v-22c-42.667 4 -74.334 6 -95.001 6c-22 0 -57 -2 -105 -6v22c21.333 2 35.833 5 43.5 9s11.5 11.667 11.5 23c0 12.667 -3.33301 29.334 -10 50.001l-31 102h-192l-29 -102
c-6.66699 -24.667 -10 -41 -10 -49c0 -12 4 -20 12 -24s22.333 -7 43 -9v-22c-36 4 -63.333 6 -82 6c-12 0 -25.167 -0.833008 -39.5 -2.5s-23.833 -2.83398 -28.5 -3.50098v22c16.667 2 29.167 5.16699 37.5 9.5s15.166 11.833 20.499 22.5s11.333 27.334 18 50.001
l163 576h12l186 -577c8 -24.667 14.667 -42.167 20 -52.5zM313.003 231.998l-90 294l-85 -294h175zM128.503 750.498c-8.33301 8.33301 -12.499 19.168 -12.499 32.501s4.16699 24.166 12.5 32.499s18.833 12.5 31.5 12.5c13.333 0 24.166 -4.33301 32.499 -13
s12.5 -19.334 12.5 -32.001c0 -13.333 -4 -24.166 -12 -32.499s-19 -12.5 -33 -12.5c-12.667 0 -23.167 4.16699 -31.5 12.5zM289.004 750.5c-8 8.33301 -12 19.166 -12 32.499s4 24.166 12 32.499s19 12.5 33 12.5c12.667 0 23.167 -4.16699 31.5 -12.5
s12.5 -19.166 12.5 -32.499s-4.16699 -24.166 -12.5 -32.499s-18.833 -12.5 -31.5 -12.5c-14 0 -25 4.16699 -33 12.5z" />
    <glyph glyph-name="Aring" unicode="&#xc5;" horiz-adv-x="497" 
d="M453 48.5c5.33301 -10.333 11.6689 -17.168 19.002 -20.501s19.333 -6 36 -8v-22c-42.667 4 -74.334 6 -95.001 6c-22 0 -57 -2 -105 -6v22c21.333 2 35.833 5 43.5 9s11.5 11.667 11.5 23c0 12.667 -3.33301 29.334 -10 50.001l-31 102h-192l-29 -102
c-6.66699 -24.667 -10 -41 -10 -49c0 -12 4 -20 12 -24s22.333 -7 43 -9v-22c-36 4 -63.333 6 -82 6c-12 0 -25.167 -0.833008 -39.5 -2.5s-23.833 -2.83398 -28.5 -3.50098v22c16.667 2 29.167 5.16699 37.5 9.5s15.166 11.833 20.499 22.5s11.333 27.334 18 50.001
l163 576h12l186 -577c8 -24.667 14.667 -42.167 20 -52.5zM313.003 231.998l-90 294l-85 -294h175zM183.503 756.998c-15.667 15.333 -23.5 34.333 -23.5 57s7.83301 41.667 23.5 57s34.834 23 57.501 23s41.834 -7.66699 57.501 -23s23.5 -34.333 23.5 -57
s-7.83301 -41.667 -23.5 -57s-34.834 -23 -57.501 -23s-41.834 7.66699 -57.501 23zM278.003 774.998c10 10 15 23 15 39s-5 29 -15 39s-22.333 15 -37 15s-27 -5 -37 -15s-15 -23 -15 -39s5 -29 15 -39s22.333 -15 37 -15s27 5 37 15z" />
    <glyph glyph-name="AE" unicode="&#xc6;" horiz-adv-x="697" 
d="M669 164l-17 -164.001h-379v22c19.333 1.33301 33.333 3.83301 42 7.5s14.667 10.834 18 21.501s5 27.667 5 51v129h-174l-56 -129c-4.66699 -11.333 -8.66699 -21.666 -12 -30.999s-5 -16.666 -5 -21.999c0 -9.33301 4.16699 -16.166 12.5 -20.499
s22.833 -7.16602 43.5 -8.49902v-22c-34.667 4 -62 6 -82 6c-13.333 0 -27.666 -0.833008 -42.999 -2.5l-32 -3.5v22c22 3.33301 38.667 10.166 50 20.499s23.666 30.833 36.999 61.5l247 566h307l14 -155h-20c-6.66699 35.333 -14 61.666 -22 78.999
s-19.167 29.666 -33.5 36.999s-34.833 11 -61.5 11h-94v-280h110c16.667 0 28.167 5.5 34.5 16.5s10.166 32.5 11.499 64.5h20v-190h-20c-1.33301 31.333 -5.16602 52.666 -11.499 63.999s-17.833 17 -34.5 17h-110v-264c0 -15.333 3 -25.833 9 -31.5s19.333 -8.5 40 -8.5
h66c27.333 0 48.166 3.83301 62.499 11.5s25.333 20.5 33 38.5s15.834 46.667 24.501 86h20zM338 258.999v369l-161 -369h161z" />
    <glyph glyph-name="Ccedilla" unicode="&#xc7;" horiz-adv-x="480" 
d="M444 227c-4 -80 -22.002 -139.504 -54.002 -178.504s-73.333 -58.5 -124 -58.5c-42.667 0 -81 13.333 -115 40s-60.667 65.834 -80 117.501s-29 113.834 -29 186.501s10 134.834 30 186.501s47.167 90.834 81.5 117.501s72.833 40 115.5 40c28 0 53 -6 75 -18
s39.667 -27.333 53 -46l22 64h14v-210h-18c-11.333 64 -28.666 110.667 -51.999 140s-54.666 44 -93.999 44c-48.667 0 -85.167 -27.667 -109.5 -83s-36.5 -133.666 -36.5 -234.999c0 -102.667 13 -179.834 39 -231.501s65.667 -77.5 119 -77.5
c36.667 0 67.667 16.333 93 49s40 83.667 44 153h26zM326.998 -64.5039c13.333 -11.667 20 -27.167 20 -46.5c0 -20 -7.83301 -36 -23.5 -48s-34.834 -18 -57.501 -18c-31.333 0 -55 11 -71 33l14 14c12.667 -16.667 29 -25 49 -25c12.667 0 23 3.83301 31 11.5
s12 18.167 12 31.5c0 12.667 -4.16699 23 -12.5 31s-18.166 12 -29.499 12c-15.333 0 -26.333 -5.33301 -33 -16l-16 8l57 92l23 -1l-41 -67c6.66699 4 16.667 6 30 6c18.667 0 34.667 -5.83301 48 -17.5z" />
    <glyph glyph-name="Egrave" unicode="&#xc8;" horiz-adv-x="462" 
d="M434 164l-17 -163.999h-385v22c19.333 1.33301 33.333 3.83301 42 7.5s14.667 10.834 18 21.501s5 27.667 5 51v464c0 23.333 -1.66699 40.333 -5 51s-9.33301 17.834 -18 21.501s-22.667 6.16699 -42 7.5v22h364l14 -155h-20c-6.66699 35.333 -14 61.666 -22 78.999
s-19.167 29.666 -33.5 36.999s-34.833 11 -61.5 11h-100v-280h116c16.667 0 28.167 5.5 34.5 16.5s10.166 32.5 11.499 64.5h20v-190h-20c-1.33301 31.333 -5.16602 52.666 -11.499 63.999s-17.833 17 -34.5 17h-116v-264c0 -15.333 3 -25.833 9 -31.5s19.333 -8.5 40 -8.5
h72c27.333 0 48.166 3.83301 62.499 11.5s25.333 20.5 33 38.5s15.834 46.667 24.501 86h20zM265 734.001l-105.002 59.001c-12.667 7.33301 -21 14.166 -25 20.499s-6 12.833 -6 19.5c0 10 3.33301 18.333 10 25s14.334 10 23.001 10s15.834 -1.83301 21.501 -5.5
s12.5 -10.5 20.5 -20.5l90 -108h-29z" />
    <glyph glyph-name="Eacute" unicode="&#xc9;" horiz-adv-x="462" 
d="M434 164l-17 -163.999h-385v22c19.333 1.33301 33.333 3.83301 42 7.5s14.667 10.834 18 21.501s5 27.667 5 51v464c0 23.333 -1.66699 40.333 -5 51s-9.33301 17.834 -18 21.501s-22.667 6.16699 -42 7.5v22h364l14 -155h-20c-6.66699 35.333 -14 61.666 -22 78.999
s-19.167 29.666 -33.5 36.999s-34.833 11 -61.5 11h-100v-280h116c16.667 0 28.167 5.5 34.5 16.5s10.166 32.5 11.499 64.5h20v-190h-20c-1.33301 31.333 -5.16602 52.666 -11.499 63.999s-17.833 17 -34.5 17h-116v-264c0 -15.333 3 -25.833 9 -31.5s19.333 -8.5 40 -8.5
h72c27.333 0 48.166 3.83301 62.499 11.5s25.333 20.5 33 38.5s15.834 46.667 24.501 86h20zM282 842.001c8 10 14.8311 16.832 20.498 20.499s12.834 5.5 21.501 5.5s16.334 -3.33301 23.001 -10s10 -15 10 -25c0 -6.66699 -2 -13.167 -6 -19.5
s-12.333 -13.166 -25 -20.499l-105 -59h-29z" />
    <glyph glyph-name="Ecircumflex" unicode="&#xca;" horiz-adv-x="462" 
d="M434 164l-17 -163.999h-385v22c19.333 1.33301 33.333 3.83301 42 7.5s14.667 10.834 18 21.501s5 27.667 5 51v464c0 23.333 -1.66699 40.333 -5 51s-9.33301 17.834 -18 21.501s-22.667 6.16699 -42 7.5v22h364l14 -155h-20c-6.66699 35.333 -14 61.666 -22 78.999
s-19.167 29.666 -33.5 36.999s-34.833 11 -61.5 11h-100v-280h116c16.667 0 28.167 5.5 34.5 16.5s10.166 32.5 11.499 64.5h20v-190h-20c-1.33301 31.333 -5.16602 52.666 -11.499 63.999s-17.833 17 -34.5 17h-116v-264c0 -15.333 3 -25.833 9 -31.5s19.333 -8.5 40 -8.5
h72c27.333 0 48.166 3.83301 62.499 11.5s25.333 20.5 33 38.5s15.834 46.667 24.501 86h20zM342 743.001l-99 60l-99 -60h-29l108 115h41l107 -115h-29z" />
    <glyph glyph-name="Edieresis" unicode="&#xcb;" horiz-adv-x="462" 
d="M434 164l-17 -163.999h-385v22c19.333 1.33301 33.333 3.83301 42 7.5s14.667 10.834 18 21.501s5 27.667 5 51v464c0 23.333 -1.66699 40.333 -5 51s-9.33301 17.834 -18 21.501s-22.667 6.16699 -42 7.5v22h364l14 -155h-20c-6.66699 35.333 -14 61.666 -22 78.999
s-19.167 29.666 -33.5 36.999s-34.833 11 -61.5 11h-100v-280h116c16.667 0 28.167 5.5 34.5 16.5s10.166 32.5 11.499 64.5h20v-190h-20c-1.33301 31.333 -5.16602 52.666 -11.499 63.999s-17.833 17 -34.5 17h-116v-264c0 -15.333 3 -25.833 9 -31.5s19.333 -8.5 40 -8.5
h72c27.333 0 48.166 3.83301 62.499 11.5s25.333 20.5 33 38.5s15.834 46.667 24.501 86h20zM130.5 750.501c-8.33301 8.33301 -12.499 19.168 -12.499 32.501s4.16699 24.166 12.5 32.499s18.833 12.5 31.5 12.5c13.333 0 24.166 -4.33301 32.499 -13
s12.5 -19.334 12.5 -32.001c0 -13.333 -4 -24.166 -12 -32.499s-19 -12.5 -33 -12.5c-12.667 0 -23.167 4.16699 -31.5 12.5zM291.001 750.503c-8 8.33301 -12 19.166 -12 32.499s4 24.166 12 32.499s19 12.5 33 12.5c12.667 0 23.167 -4.16699 31.5 -12.5
s12.5 -19.166 12.5 -32.499s-4.16699 -24.166 -12.5 -32.499s-18.833 -12.5 -31.5 -12.5c-14 0 -25 4.16699 -33 12.5z" />
    <glyph glyph-name="Igrave" unicode="&#xcc;" horiz-adv-x="270" 
d="M92 616c-3.33301 10.667 -9.16602 18.167 -17.499 22.5s-22.5 7.5 -42.5 9.5v22c24.667 -2 44.5 -3.5 59.5 -4.5s29.5 -1.5 43.5 -1.5s28.5 0.5 43.5 1.5s34.833 2.5 59.5 4.5v-22c-20 -2 -34.167 -5.16699 -42.5 -9.5s-14.166 -11.833 -17.499 -22.5s-5 -28.667 -5 -54
v-456c0 -25.333 1.66699 -43.333 5 -54s9.16602 -18.167 17.499 -22.5s22.5 -7.5 42.5 -9.5v-22c-24.667 2 -44.5 3.5 -59.5 4.5s-29.5 1.5 -43.5 1.5s-28.5 -0.5 -43.5 -1.5s-34.833 -2.5 -59.5 -4.5v22c20 2 34.167 5.16699 42.5 9.5s14.166 11.833 17.499 22.5
s5 28.667 5 54v456c0 25.333 -1.66699 43.333 -5 54zM157 734l-105.002 59.001c-12.667 7.33301 -21 14.166 -25 20.499s-6 12.833 -6 19.5c0 10 3.33301 18.333 10 25s14.334 10 23.001 10s15.834 -1.83301 21.501 -5.5s12.5 -10.5 20.5 -20.5l90 -108h-29z" />
    <glyph glyph-name="Iacute" unicode="&#xcd;" horiz-adv-x="270" 
d="M92 616c-3.33301 10.667 -9.16602 18.167 -17.499 22.5s-22.5 7.5 -42.5 9.5v22c24.667 -2 44.5 -3.5 59.5 -4.5s29.5 -1.5 43.5 -1.5s28.5 0.5 43.5 1.5s34.833 2.5 59.5 4.5v-22c-20 -2 -34.167 -5.16699 -42.5 -9.5s-14.166 -11.833 -17.499 -22.5s-5 -28.667 -5 -54
v-456c0 -25.333 1.66699 -43.333 5 -54s9.16602 -18.167 17.499 -22.5s22.5 -7.5 42.5 -9.5v-22c-24.667 2 -44.5 3.5 -59.5 4.5s-29.5 1.5 -43.5 1.5s-28.5 -0.5 -43.5 -1.5s-34.833 -2.5 -59.5 -4.5v22c20 2 34.167 5.16699 42.5 9.5s14.166 11.833 17.499 22.5
s5 28.667 5 54v456c0 25.333 -1.66699 43.333 -5 54zM174 842c8 10 14.8311 16.832 20.498 20.499s12.834 5.5 21.501 5.5s16.334 -3.33301 23.001 -10s10 -15 10 -25c0 -6.66699 -2 -13.167 -6 -19.5s-12.333 -13.166 -25 -20.499l-105 -59h-29z" />
    <glyph glyph-name="Icircumflex" unicode="&#xce;" horiz-adv-x="270" 
d="M50 743h-29l94 115h41l93 -115h-29l-85 60zM91.5 665.5c15 -1 29.5 -1.5 43.5 -1.5s28.5 0.5 43.5 1.5s34.833 2.5 59.5 4.5v-22c-20 -2 -34.167 -5.16699 -42.5 -9.5s-14.166 -11.833 -17.499 -22.5s-5 -28.667 -5 -54v-456c0 -25.333 1.66699 -43.333 5 -54
s9.16602 -18.167 17.499 -22.5s22.5 -7.5 42.5 -9.5v-22c-24.667 2 -44.5 3.5 -59.5 4.5s-29.5 1.5 -43.5 1.5s-28.5 -0.5 -43.5 -1.5s-34.833 -2.5 -59.5 -4.5v22c20 2 34.167 5.16699 42.5 9.5s14.166 11.833 17.499 22.5s5 28.667 5 54v456
c0 25.333 -1.66699 43.333 -5 54s-9.16602 18.167 -17.499 22.5s-22.5 7.5 -42.5 9.5v22c24.667 -2 44.5 -3.5 59.5 -4.5z" />
    <glyph glyph-name="Idieresis" unicode="&#xcf;" horiz-adv-x="270" 
d="M31.5 750.5c-8.33301 8.33301 -12.499 19.168 -12.499 32.501s4.16699 24.166 12.5 32.499s18.833 12.5 31.5 12.5c13.333 0 24.166 -4.33301 32.499 -13s12.5 -19.334 12.5 -32.001c0 -13.333 -4 -24.166 -12 -32.499s-19 -12.5 -33 -12.5
c-12.667 0 -23.167 4.16699 -31.5 12.5zM174.001 750.502c-8 8.33301 -12 19.166 -12 32.499s4 24.166 12 32.499s19 12.5 33 12.5c12.667 0 23.167 -4.16699 31.5 -12.5s12.5 -19.166 12.5 -32.499s-4.16699 -24.166 -12.5 -32.499s-18.833 -12.5 -31.5 -12.5
c-14 0 -25 4.16699 -33 12.5zM92.001 616.002c-3.33301 10.667 -9.16602 18.167 -17.499 22.5s-22.5 7.5 -42.5 9.5v22c24.667 -2 44.5 -3.5 59.5 -4.5s29.5 -1.5 43.5 -1.5s28.5 0.5 43.5 1.5s34.833 2.5 59.5 4.5v-22c-20 -2 -34.167 -5.16699 -42.5 -9.5
s-14.166 -11.833 -17.499 -22.5s-5 -28.667 -5 -54v-456c0 -25.333 1.66699 -43.333 5 -54s9.16602 -18.167 17.499 -22.5s22.5 -7.5 42.5 -9.5v-22c-24.667 2 -44.5 3.5 -59.5 4.5s-29.5 1.5 -43.5 1.5s-28.5 -0.5 -43.5 -1.5s-34.833 -2.5 -59.5 -4.5v22
c20 2 34.167 5.16699 42.5 9.5s14.166 11.833 17.499 22.5s5 28.667 5 54v456c0 25.333 -1.66699 43.333 -5 54z" />
    <glyph glyph-name="Eth" unicode="&#xd0;" horiz-adv-x="539" 
d="M370.5 626.5c39.667 -27.667 71 -66.834 94 -117.501s34.5 -109 34.5 -175s-11.5 -124.333 -34.5 -175s-54.333 -89.834 -94 -117.501s-83.5 -41.5 -131.5 -41.5h-204v22c19.333 1.33301 33.333 3.83301 42 7.5s14.667 10.834 18 21.501s5 27.667 5 51v228h-73v28h73v208
c0 23.333 -1.66699 40.333 -5 51s-9.33301 17.834 -18 21.501s-22.667 6.16699 -42 7.5v22h204c48 0 91.833 -13.833 131.5 -41.5zM370.5 111c31.667 55.333 47.5 129.668 47.5 223.001s-15.833 167.666 -47.5 222.999s-78.167 83 -139.5 83h-55v-282h106v-28h-106v-262
c0 -15.333 3 -25.833 9 -31.5s19.333 -8.5 40 -8.5h6c61.333 0 107.833 27.667 139.5 83z" />
    <glyph glyph-name="Ntilde" unicode="&#xd1;" horiz-adv-x="548" 
d="M521 670v-22c-20 -2 -34.167 -5.16699 -42.5 -9.5s-14.166 -11.833 -17.499 -22.5s-5 -28.667 -5 -54v-572h-12l-319 590v-474c0 -25.333 1.83301 -43.5 5.5 -54.5s10.167 -18.5 19.5 -22.5s25.333 -7 48 -9v-22c-36 4 -64 6 -84 6h-3c-14 0 -40.333 -2 -79 -6v22
c20 2 34.167 5.16699 42.5 9.5s14.166 11.833 17.499 22.5s5 28.667 5 54v514c-5.33301 6.66699 -13 12.167 -23 16.5s-24 7.83301 -42 10.5v22c33.333 -3.33301 59 -5 77 -5c17.333 0 35 1 53 3l266 -491v385c0 25.333 -1.83301 43.5 -5.5 54.5s-10.167 18.667 -19.5 23
s-25.333 7.5 -48 9.5v22c30.667 -4 58.667 -6 84 -6h3c14 0 40.333 2 79 6zM305 750.5c-11.333 5 -25.333 12.5 -42 22.5c-23.333 14.667 -41.333 22 -54 22c-22.667 0 -37.667 -15.667 -45 -47h-21c3.33301 38.667 12.166 65.167 26.499 79.5s30.833 21.5 49.5 21.5
c12 0 23.833 -2.5 35.5 -7.5s25.167 -12.5 40.5 -22.5c12.667 -8 23.167 -13.667 31.5 -17s16.5 -5 24.5 -5c22 0 36.667 15.667 44 47h21c-3.33301 -38.667 -12.166 -65.167 -26.499 -79.5s-30.5 -21.5 -48.5 -21.5c-12.667 0 -24.667 2.5 -36 7.5z" />
    <glyph glyph-name="Ograve" unicode="&#xd2;" horiz-adv-x="546" 
d="M155.5 30c-35 26.667 -62.833 65.834 -83.5 117.501s-31 113.834 -31 186.501s10.333 134.834 31 186.501s48.5 90.834 83.5 117.501s74.167 40 117.5 40s82.5 -13.333 117.5 -40s62.833 -65.834 83.5 -117.501s31 -113.834 31 -186.501s-10.333 -134.834 -31 -186.501
s-48.5 -90.834 -83.5 -117.501s-74.167 -40 -117.5 -40s-82.5 13.333 -117.5 40zM386 99.5c25.333 55.667 38 133.834 38 234.501s-12.667 178.834 -38 234.501s-63 83.5 -113 83.5s-87.667 -27.833 -113 -83.5s-38 -133.834 -38 -234.501s12.667 -178.834 38 -234.501
s63 -83.5 113 -83.5s87.667 27.833 113 83.5zM295 734l-105.002 59.001c-12.667 7.33301 -21 14.166 -25 20.499s-6 12.833 -6 19.5c0 10 3.33301 18.333 10 25s14.334 10 23.001 10s15.834 -1.83301 21.501 -5.5s12.5 -10.5 20.5 -20.5l90 -108h-29z" />
    <glyph glyph-name="Oacute" unicode="&#xd3;" horiz-adv-x="546" 
d="M155.5 30c-35 26.667 -62.833 65.834 -83.5 117.501s-31 113.834 -31 186.501s10.333 134.834 31 186.501s48.5 90.834 83.5 117.501s74.167 40 117.5 40s82.5 -13.333 117.5 -40s62.833 -65.834 83.5 -117.501s31 -113.834 31 -186.501s-10.333 -134.834 -31 -186.501
s-48.5 -90.834 -83.5 -117.501s-74.167 -40 -117.5 -40s-82.5 13.333 -117.5 40zM386 99.5c25.333 55.667 38 133.834 38 234.501s-12.667 178.834 -38 234.501s-63 83.5 -113 83.5s-87.667 -27.833 -113 -83.5s-38 -133.834 -38 -234.501s12.667 -178.834 38 -234.501
s63 -83.5 113 -83.5s87.667 27.833 113 83.5zM312 842c8 10 14.8311 16.832 20.498 20.499s12.834 5.5 21.501 5.5s16.334 -3.33301 23.001 -10s10 -15 10 -25c0 -6.66699 -2 -13.167 -6 -19.5s-12.333 -13.166 -25 -20.499l-105 -59h-29z" />
    <glyph glyph-name="Ocircumflex" unicode="&#xd4;" horiz-adv-x="546" 
d="M155.5 30c-35 26.667 -62.833 65.834 -83.5 117.501s-31 113.834 -31 186.501s10.333 134.834 31 186.501s48.5 90.834 83.5 117.501s74.167 40 117.5 40s82.5 -13.333 117.5 -40s62.833 -65.834 83.5 -117.501s31 -113.834 31 -186.501s-10.333 -134.834 -31 -186.501
s-48.5 -90.834 -83.5 -117.501s-74.167 -40 -117.5 -40s-82.5 13.333 -117.5 40zM386 99.5c25.333 55.667 38 133.834 38 234.501s-12.667 178.834 -38 234.501s-63 83.5 -113 83.5s-87.667 -27.833 -113 -83.5s-38 -133.834 -38 -234.501s12.667 -178.834 38 -234.501
s63 -83.5 113 -83.5s87.667 27.833 113 83.5zM372 743l-99 60l-99 -60h-29l108 115h41l107 -115h-29z" />
    <glyph glyph-name="Otilde" unicode="&#xd5;" horiz-adv-x="546" 
d="M155.5 30c-35 26.667 -62.833 65.834 -83.5 117.501s-31 113.834 -31 186.501s10.333 134.834 31 186.501s48.5 90.834 83.5 117.501s74.167 40 117.5 40s82.5 -13.333 117.5 -40s62.833 -65.834 83.5 -117.501s31 -113.834 31 -186.501s-10.333 -134.834 -31 -186.501
s-48.5 -90.834 -83.5 -117.501s-74.167 -40 -117.5 -40s-82.5 13.333 -117.5 40zM386 99.5c25.333 55.667 38 133.834 38 234.501s-12.667 178.834 -38 234.501s-63 83.5 -113 83.5s-87.667 -27.833 -113 -83.5s-38 -133.834 -38 -234.501s12.667 -178.834 38 -234.501
s63 -83.5 113 -83.5s87.667 27.833 113 83.5zM298 750.5c-11.333 5 -25.333 12.5 -42 22.5c-23.333 14.667 -41.333 22 -54 22c-22.667 0 -37.667 -15.667 -45 -47h-21c3.33301 38.667 12.166 65.167 26.499 79.5s30.833 21.5 49.5 21.5c12 0 23.833 -2.5 35.5 -7.5
s25.167 -12.5 40.5 -22.5c12.667 -8 23.167 -13.667 31.5 -17s16.5 -5 24.5 -5c22 0 36.667 15.667 44 47h21c-3.33301 -38.667 -12.166 -65.167 -26.499 -79.5s-30.5 -21.5 -48.5 -21.5c-12.667 0 -24.667 2.5 -36 7.5z" />
    <glyph glyph-name="Odieresis" unicode="&#xd6;" horiz-adv-x="546" 
d="M155.5 30c-35 26.667 -62.833 65.834 -83.5 117.501s-31 113.834 -31 186.501s10.333 134.834 31 186.501s48.5 90.834 83.5 117.501s74.167 40 117.5 40s82.5 -13.333 117.5 -40s62.833 -65.834 83.5 -117.501s31 -113.834 31 -186.501s-10.333 -134.834 -31 -186.501
s-48.5 -90.834 -83.5 -117.501s-74.167 -40 -117.5 -40s-82.5 13.333 -117.5 40zM386 99.5c25.333 55.667 38 133.834 38 234.501s-12.667 178.834 -38 234.501s-63 83.5 -113 83.5s-87.667 -27.833 -113 -83.5s-38 -133.834 -38 -234.501s12.667 -178.834 38 -234.501
s63 -83.5 113 -83.5s87.667 27.833 113 83.5zM160.5 750.5c-8.33301 8.33301 -12.499 19.168 -12.499 32.501s4.16699 24.166 12.5 32.499s18.833 12.5 31.5 12.5c13.333 0 24.166 -4.33301 32.499 -13s12.5 -19.334 12.5 -32.001c0 -13.333 -4 -24.166 -12 -32.499
s-19 -12.5 -33 -12.5c-12.667 0 -23.167 4.16699 -31.5 12.5zM321.001 750.502c-8 8.33301 -12 19.166 -12 32.499s4 24.166 12 32.499s19 12.5 33 12.5c12.667 0 23.167 -4.16699 31.5 -12.5s12.5 -19.166 12.5 -32.499s-4.16699 -24.166 -12.5 -32.499
s-18.833 -12.5 -31.5 -12.5c-14 0 -25 4.16699 -33 12.5z" />
    <glyph glyph-name="multiply" unicode="&#xd7;" 
d="M240 299l144 -151l-21 -21l-143 150l-143 -150l-21 21l144 151l-144 151l21 21l143 -150l143 150l21 -21z" />
    <glyph glyph-name="Oslash" unicode="&#xd8;" horiz-adv-x="547" 
d="M485 492.5c14 -45.667 21.001 -98.5 21.001 -158.5c0 -72.667 -10.333 -134.834 -31 -186.501s-48.5 -90.834 -83.5 -117.501s-74.167 -40 -117.5 -40c-51.333 0 -96.333 18.333 -135 55l-36 -67l-27 12l41 79c-24 30 -42.5 67.333 -55.5 112s-19.5 95.667 -19.5 153
c0 72.667 10.333 134.834 31 186.501s48.5 90.834 83.5 117.501s74.167 40 117.5 40c49.333 0 92.666 -16.667 129.999 -50l31 64l28 -12l-37 -75c25.333 -29.333 45 -66.833 59 -112.5zM161.001 568.5c-25.333 -55.667 -38 -133.834 -38 -234.501
c0 -83.333 8.66699 -151.666 26 -204.999l230 455c-26 45.333 -61 68 -105 68c-50 0 -87.667 -27.833 -113 -83.5zM387.001 99.5c25.333 55.667 38 133.832 38 234.499c0 90.667 -10 162.334 -30 215.001l-230 -457c26 -50.667 62.333 -76 109 -76
c50 0 87.667 27.833 113 83.5z" />
    <glyph glyph-name="Ugrave" unicode="&#xd9;" horiz-adv-x="556" 
d="M433 616c-3.33301 10.667 -9.16992 18.166 -17.5029 22.499s-22.5 7.5 -42.5 9.5v22c38.667 -4 65 -6 79 -6s40.333 2 79 6v-22c-20 -2 -34.167 -5.16699 -42.5 -9.5s-14.166 -11.833 -17.499 -22.5s-5 -28.667 -5 -54v-377c0 -64 -16 -112.5 -48 -145.5
s-77 -49.5 -135 -49.5c-60 0 -107.333 16.667 -142 50s-52 79.333 -52 138v384c0 25.333 -1.66699 43.333 -5 54s-9.16602 18.167 -17.499 22.5s-22.5 7.5 -42.5 9.5v22c24.667 -2 44.5 -3.5 59.5 -4.5s29.5 -1.5 43.5 -1.5s28.5 0.5 43.5 1.5s34.833 2.5 59.5 4.5v-22
c-20 -2 -34.167 -5.16699 -42.5 -9.5s-14.166 -11.833 -17.499 -22.5s-5 -28.667 -5 -54v-374c0 -54 11.5 -94 34.5 -120s55.167 -39 96.5 -39c46.667 0 82 12.833 106 38.5s36 65.834 36 120.501v374c0 25.333 -1.66699 43.333 -5 54zM314.996 733.999l-105.002 59.001
c-12.667 7.33301 -21 14.166 -25 20.499s-6 12.833 -6 19.5c0 10 3.33301 18.333 10 25s14.334 10 23.001 10s15.834 -1.83301 21.501 -5.5s12.5 -10.5 20.5 -20.5l90 -108h-29z" />
    <glyph glyph-name="Uacute" unicode="&#xda;" horiz-adv-x="556" 
d="M433 616c-3.33301 10.667 -9.16992 18.166 -17.5029 22.499s-22.5 7.5 -42.5 9.5v22c38.667 -4 65 -6 79 -6s40.333 2 79 6v-22c-20 -2 -34.167 -5.16699 -42.5 -9.5s-14.166 -11.833 -17.499 -22.5s-5 -28.667 -5 -54v-377c0 -64 -16 -112.5 -48 -145.5
s-77 -49.5 -135 -49.5c-60 0 -107.333 16.667 -142 50s-52 79.333 -52 138v384c0 25.333 -1.66699 43.333 -5 54s-9.16602 18.167 -17.499 22.5s-22.5 7.5 -42.5 9.5v22c24.667 -2 44.5 -3.5 59.5 -4.5s29.5 -1.5 43.5 -1.5s28.5 0.5 43.5 1.5s34.833 2.5 59.5 4.5v-22
c-20 -2 -34.167 -5.16699 -42.5 -9.5s-14.166 -11.833 -17.499 -22.5s-5 -28.667 -5 -54v-374c0 -54 11.5 -94 34.5 -120s55.167 -39 96.5 -39c46.667 0 82 12.833 106 38.5s36 65.834 36 120.501v374c0 25.333 -1.66699 43.333 -5 54zM331.996 841.999
c8 10 14.8311 16.832 20.498 20.499s12.834 5.5 21.501 5.5s16.334 -3.33301 23.001 -10s10 -15 10 -25c0 -6.66699 -2 -13.167 -6 -19.5s-12.333 -13.166 -25 -20.499l-105 -59h-29z" />
    <glyph glyph-name="Ucircumflex" unicode="&#xdb;" horiz-adv-x="556" 
d="M433 616c-3.33301 10.667 -9.16992 18.166 -17.5029 22.499s-22.5 7.5 -42.5 9.5v22c38.667 -4 65 -6 79 -6s40.333 2 79 6v-22c-20 -2 -34.167 -5.16699 -42.5 -9.5s-14.166 -11.833 -17.499 -22.5s-5 -28.667 -5 -54v-377c0 -64 -16 -112.5 -48 -145.5
s-77 -49.5 -135 -49.5c-60 0 -107.333 16.667 -142 50s-52 79.333 -52 138v384c0 25.333 -1.66699 43.333 -5 54s-9.16602 18.167 -17.499 22.5s-22.5 7.5 -42.5 9.5v22c24.667 -2 44.5 -3.5 59.5 -4.5s29.5 -1.5 43.5 -1.5s28.5 0.5 43.5 1.5s34.833 2.5 59.5 4.5v-22
c-20 -2 -34.167 -5.16699 -42.5 -9.5s-14.166 -11.833 -17.499 -22.5s-5 -28.667 -5 -54v-374c0 -54 11.5 -94 34.5 -120s55.167 -39 96.5 -39c46.667 0 82 12.833 106 38.5s36 65.834 36 120.501v374c0 25.333 -1.66699 43.333 -5 54zM391.996 742.999l-99 60l-99 -60h-29
l108 115h41l107 -115h-29z" />
    <glyph glyph-name="Udieresis" unicode="&#xdc;" horiz-adv-x="556" 
d="M433 616c-3.33301 10.667 -9.16992 18.166 -17.5029 22.499s-22.5 7.5 -42.5 9.5v22c38.667 -4 65 -6 79 -6s40.333 2 79 6v-22c-20 -2 -34.167 -5.16699 -42.5 -9.5s-14.166 -11.833 -17.499 -22.5s-5 -28.667 -5 -54v-377c0 -64 -16 -112.5 -48 -145.5
s-77 -49.5 -135 -49.5c-60 0 -107.333 16.667 -142 50s-52 79.333 -52 138v384c0 25.333 -1.66699 43.333 -5 54s-9.16602 18.167 -17.499 22.5s-22.5 7.5 -42.5 9.5v22c24.667 -2 44.5 -3.5 59.5 -4.5s29.5 -1.5 43.5 -1.5s28.5 0.5 43.5 1.5s34.833 2.5 59.5 4.5v-22
c-20 -2 -34.167 -5.16699 -42.5 -9.5s-14.166 -11.833 -17.499 -22.5s-5 -28.667 -5 -54v-374c0 -54 11.5 -94 34.5 -120s55.167 -39 96.5 -39c46.667 0 82 12.833 106 38.5s36 65.834 36 120.501v374c0 25.333 -1.66699 43.333 -5 54zM180.496 750.499
c-8.33301 8.33301 -12.499 19.168 -12.499 32.501s4.16699 24.166 12.5 32.499s18.833 12.5 31.5 12.5c13.333 0 24.166 -4.33301 32.499 -13s12.5 -19.334 12.5 -32.001c0 -13.333 -4 -24.166 -12 -32.499s-19 -12.5 -33 -12.5c-12.667 0 -23.167 4.16699 -31.5 12.5z
M340.997 750.501c-8 8.33301 -12 19.166 -12 32.499s4 24.166 12 32.499s19 12.5 33 12.5c12.667 0 23.167 -4.16699 31.5 -12.5s12.5 -19.166 12.5 -32.499s-4.16699 -24.166 -12.5 -32.499s-18.833 -12.5 -31.5 -12.5c-14 0 -25 4.16699 -33 12.5z" />
    <glyph glyph-name="Yacute" unicode="&#xdd;" horiz-adv-x="483" 
d="M483 670l0.00195312 -22c-16.667 -2 -29 -4.66699 -37 -8s-15.5 -9.83301 -22.5 -19.5s-15.5 -26.167 -25.5 -49.5l-114 -257v-208c-0.666992 -25.333 0.833008 -43.5 4.5 -54.5s10 -18.5 19 -22.5s24.167 -7 45.5 -9v-22c-26 2 -46.667 3.5 -62 4.5s-30.333 1.5 -45 1.5
c-24 0 -59.667 -2 -107 -6v22c21.333 2 36.5 5 45.5 9s15.333 11.5 19 22.5s5.16699 29.167 4.5 54.5v197l-131 269c-10.667 22 -19.334 37.833 -26.001 47.5s-13.834 16.334 -21.501 20.001s-18.834 6.5 -33.501 8.5v22c41.333 -4 73.333 -6 96 -6c25.333 0 59 2 101 6v-22
c-20 -2 -33.833 -4.66699 -41.5 -8s-11.5 -9 -11.5 -17c0 -9.33301 6 -26 18 -50l111 -222l99 220c11.333 24.667 17 42 17 52c0 8.66699 -3.66699 14.667 -11 18s-20.333 5.66602 -39 6.99902v22c30 -4 58.667 -6 86 -6c18.667 0 39.334 2 62.001 6zM299.002 842
c8 10 14.8311 16.832 20.498 20.499s12.834 5.5 21.501 5.5s16.334 -3.33301 23.001 -10s10 -15 10 -25c0 -6.66699 -2 -13.167 -6 -19.5s-12.333 -13.166 -25 -20.499l-105 -59h-29z" />
    <glyph glyph-name="Thorn" unicode="&#xde;" horiz-adv-x="480" 
d="M394.5 473c35.667 -32 53.5 -75.667 53.5 -131c0 -36.667 -9.16699 -69 -27.5 -97s-43 -49.667 -74 -65s-65.5 -23 -103.5 -23h-70v-51c0 -25.333 1.66699 -43.333 5 -54s9.16602 -18.167 17.499 -22.5s22.5 -7.5 42.5 -9.5v-22c-24.667 2 -44.5 3.5 -59.5 4.5
s-29.5 1.5 -43.5 1.5s-28.5 -0.5 -43.5 -1.5s-34.833 -2.5 -59.5 -4.5v22c20 2 34.167 5.16699 42.5 9.5s14.166 11.833 17.499 22.5s5 28.667 5 54v456c0 25.333 -1.66699 43.333 -5 54s-9.16602 18.167 -17.499 22.5s-22.5 7.5 -42.5 9.5v22
c24.667 -2 44.5 -3.5 59.5 -4.5s29.5 -1.5 43.5 -1.5s28.5 0.5 43.5 1.5s34.833 2.5 59.5 4.5v-22c-20 -2 -34.167 -5.16699 -42.5 -9.5s-14.166 -11.833 -17.499 -22.5s-5 -28.667 -5 -54v-41h72c64 0 113.833 -16 149.5 -48zM333.5 225.5
c22.333 26.333 33.501 63.501 33.501 111.501c0 49.333 -11.333 87.666 -34 114.999s-57 41 -103 41h-57v-307h59c45.333 0 79.166 13.167 101.499 39.5z" />
    <glyph glyph-name="germandbls" unicode="&#xdf;" horiz-adv-x="443" 
d="M367 344c29.333 -34.667 44.001 -82.667 44.001 -144c0 -40.667 -8 -76.667 -24 -108s-37.333 -55.666 -64 -72.999s-55.334 -26 -86.001 -26c-14 0 -27 2 -39 6v26c12 -4.66699 24.333 -7 37 -7c34.667 0 60.334 17.5 77.001 52.5s25 79.5 25 133.5
c0 52 -10.5 96.333 -31.5 133s-49.833 55 -86.5 55h-20v24h9c30.667 0 53.167 13.167 67.5 39.5s21.5 57.833 21.5 94.5c0 30.667 -5.16699 56.667 -15.5 78s-28.5 32 -54.5 32c-54 0 -81 -44 -81 -132v-526c-16 1.33301 -27.667 2 -35 2c-26 0 -55.667 -2 -89 -6v22
c16.667 2 28.5 4.83301 35.5 8.5s11.833 10.5 14.5 20.5s4 25.667 4 47v384c0 47.333 7.5 86.333 22.5 117s34.5 53 58.5 67s49 21 75 21c28 0 52.167 -6.16699 72.5 -18.5s35.666 -28.5 45.999 -48.5s15.5 -41 15.5 -63c0 -36 -10.667 -66.833 -32 -92.5
s-47.333 -43.834 -78 -54.501c44.667 -8 81.667 -29.333 111 -64z" />
    <glyph glyph-name="agrave" unicode="&#xe0;" horiz-adv-x="386" 
d="M331.5 34c8.33301 -8 22.499 -11.998 42.499 -11.998v-20c-21.333 -5.33301 -39.666 -8 -54.999 -8c-18.667 0 -33.167 5.66699 -43.5 17s-15.5 28.666 -15.5 51.999v8c-10 -26.667 -24.667 -46.834 -44 -60.501s-41.333 -20.5 -66 -20.5c-36 0 -64 12 -84 36
s-30 55.667 -30 95c0 43.333 12.333 76.666 37 99.999s62.334 42 113.001 56c31.333 8.66699 52.333 14 63 16v71c0 59.333 -21.333 89 -64 89c-44 0 -66 -29.333 -66 -88c0 -15.333 -2.66699 -25.833 -8 -31.5s-13.333 -8.5 -24 -8.5c-20.667 0 -31 11.667 -31 35
c0 21.333 6 41 18 59s28 32.333 48 43s41.667 16 65 16c41.333 0 73.666 -13.167 96.999 -39.5s35 -61.166 35 -104.499v-254c0 -22.667 4.16699 -38 12.5 -46zM227.499 59.502c14.333 21 21.501 50.501 21.501 88.501v120c-12.667 -2.66699 -31 -7.33398 -55 -14.001
c-32.667 -9.33301 -54.834 -24.833 -66.501 -46.5s-17.5 -49.167 -17.5 -82.5c0 -31.333 5.83301 -55.333 17.5 -72s27.5 -25 47.5 -25c20.667 0 38.167 10.5 52.5 31.5zM197 534.003l-107.999 98.001c-8 7.33301 -12 15.666 -12 24.999c0 10 3.5 18.333 10.5 25
s15.167 10 24.5 10c13.333 0 24.666 -7.66699 33.999 -23l78 -135h-27z" />
    <glyph glyph-name="aacute" unicode="&#xe1;" horiz-adv-x="386" 
d="M331.5 34c8.33301 -8 22.499 -11.998 42.499 -11.998v-20c-21.333 -5.33301 -39.666 -8 -54.999 -8c-18.667 0 -33.167 5.66699 -43.5 17s-15.5 28.666 -15.5 51.999v8c-10 -26.667 -24.667 -46.834 -44 -60.501s-41.333 -20.5 -66 -20.5c-36 0 -64 12 -84 36
s-30 55.667 -30 95c0 43.333 12.333 76.666 37 99.999s62.334 42 113.001 56c31.333 8.66699 52.333 14 63 16v71c0 59.333 -21.333 89 -64 89c-44 0 -66 -29.333 -66 -88c0 -15.333 -2.66699 -25.833 -8 -31.5s-13.333 -8.5 -24 -8.5c-20.667 0 -31 11.667 -31 35
c0 21.333 6 41 18 59s28 32.333 48 43s41.667 16 65 16c41.333 0 73.666 -13.167 96.999 -39.5s35 -61.166 35 -104.499v-254c0 -22.667 4.16699 -38 12.5 -46zM227.499 59.502c14.333 21 21.501 50.501 21.501 88.501v120c-12.667 -2.66699 -31 -7.33398 -55 -14.001
c-32.667 -9.33301 -54.834 -24.833 -66.501 -46.5s-17.5 -49.167 -17.5 -82.5c0 -31.333 5.83301 -55.333 17.5 -72s27.5 -25 47.5 -25c20.667 0 38.167 10.5 52.5 31.5zM232 669.003c9.33301 15.333 20.667 22.999 34 22.999c9.33301 0 17.5 -3.33301 24.5 -10
s10.5 -15 10.5 -25c0 -9.33301 -4 -17.666 -12 -24.999l-108 -98h-27z" />
    <glyph glyph-name="acircumflex" unicode="&#xe2;" horiz-adv-x="386" 
d="M331.5 34c8.33301 -8 22.499 -11.998 42.499 -11.998v-20c-21.333 -5.33301 -39.666 -8 -54.999 -8c-18.667 0 -33.167 5.66699 -43.5 17s-15.5 28.666 -15.5 51.999v8c-10 -26.667 -24.667 -46.834 -44 -60.501s-41.333 -20.5 -66 -20.5c-36 0 -64 12 -84 36
s-30 55.667 -30 95c0 43.333 12.333 76.666 37 99.999s62.334 42 113.001 56c31.333 8.66699 52.333 14 63 16v71c0 59.333 -21.333 89 -64 89c-44 0 -66 -29.333 -66 -88c0 -15.333 -2.66699 -25.833 -8 -31.5s-13.333 -8.5 -24 -8.5c-20.667 0 -31 11.667 -31 35
c0 21.333 6 41 18 59s28 32.333 48 43s41.667 16 65 16c41.333 0 73.666 -13.167 96.999 -39.5s35 -61.166 35 -104.499v-254c0 -22.667 4.16699 -38 12.5 -46zM227.499 59.502c14.333 21 21.501 50.501 21.501 88.501v120c-12.667 -2.66699 -31 -7.33398 -55 -14.001
c-32.667 -9.33301 -54.834 -24.833 -66.501 -46.5s-17.5 -49.167 -17.5 -82.5c0 -31.333 5.83301 -55.333 17.5 -72s27.5 -25 47.5 -25c20.667 0 38.167 10.5 52.5 31.5zM278 543.003l-89 75l-90 -75h-25l97 135h36l96 -135h-25z" />
    <glyph glyph-name="atilde" unicode="&#xe3;" horiz-adv-x="386" 
d="M331.5 34c8.33301 -8 22.499 -11.998 42.499 -11.998v-20c-21.333 -5.33301 -39.666 -8 -54.999 -8c-18.667 0 -33.167 5.66699 -43.5 17s-15.5 28.666 -15.5 51.999v8c-10 -26.667 -24.667 -46.834 -44 -60.501s-41.333 -20.5 -66 -20.5c-36 0 -64 12 -84 36
s-30 55.667 -30 95c0 43.333 12.333 76.666 37 99.999s62.334 42 113.001 56c31.333 8.66699 52.333 14 63 16v71c0 59.333 -21.333 89 -64 89c-44 0 -66 -29.333 -66 -88c0 -15.333 -2.66699 -25.833 -8 -31.5s-13.333 -8.5 -24 -8.5c-20.667 0 -31 11.667 -31 35
c0 21.333 6 41 18 59s28 32.333 48 43s41.667 16 65 16c41.333 0 73.666 -13.167 96.999 -39.5s35 -61.166 35 -104.499v-254c0 -22.667 4.16699 -38 12.5 -46zM227.499 59.502c14.333 21 21.501 50.501 21.501 88.501v120c-12.667 -2.66699 -31 -7.33398 -55 -14.001
c-32.667 -9.33301 -54.834 -24.833 -66.501 -46.5s-17.5 -49.167 -17.5 -82.5c0 -31.333 5.83301 -55.333 17.5 -72s27.5 -25 47.5 -25c20.667 0 38.167 10.5 52.5 31.5zM207 549.003c-10.667 5.33301 -22.3359 12.667 -35.0029 22c-10.667 8 -19.5 13.833 -26.5 17.5
s-13.5 5.5 -19.5 5.5c-9.33301 0 -17.166 -3.66699 -23.499 -11s-11.166 -19.666 -14.499 -36.999h-21c4 67.333 27.333 101 70 101c11.333 0 21.833 -2.5 31.5 -7.5s21.5 -12.5 35.5 -22.5c10.667 -8 19.667 -13.833 27 -17.5s14.333 -5.5 21 -5.5
c9.33301 0 17 3.66699 23 11s10.667 19.666 14 36.999h21c-2 -38.667 -9.66699 -65.167 -23 -79.5s-28.666 -21.5 -45.999 -21.5c-12 0 -23.333 2.66699 -34 8z" />
    <glyph glyph-name="adieresis" unicode="&#xe4;" horiz-adv-x="386" 
d="M331.5 34c8.33301 -8 22.499 -11.998 42.499 -11.998v-20c-21.333 -5.33301 -39.666 -8 -54.999 -8c-18.667 0 -33.167 5.66699 -43.5 17s-15.5 28.666 -15.5 51.999v8c-10 -26.667 -24.667 -46.834 -44 -60.501s-41.333 -20.5 -66 -20.5c-36 0 -64 12 -84 36
s-30 55.667 -30 95c0 43.333 12.333 76.666 37 99.999s62.334 42 113.001 56c31.333 8.66699 52.333 14 63 16v71c0 59.333 -21.333 89 -64 89c-44 0 -66 -29.333 -66 -88c0 -15.333 -2.66699 -25.833 -8 -31.5s-13.333 -8.5 -24 -8.5c-20.667 0 -31 11.667 -31 35
c0 21.333 6 41 18 59s28 32.333 48 43s41.667 16 65 16c41.333 0 73.666 -13.167 96.999 -39.5s35 -61.166 35 -104.499v-254c0 -22.667 4.16699 -38 12.5 -46zM227.499 59.502c14.333 21 21.501 50.501 21.501 88.501v120c-12.667 -2.66699 -31 -7.33398 -55 -14.001
c-32.667 -9.33301 -54.834 -24.833 -66.501 -46.5s-17.5 -49.167 -17.5 -82.5c0 -31.333 5.83301 -55.333 17.5 -72s27.5 -25 47.5 -25c20.667 0 38.167 10.5 52.5 31.5zM89 565.503c-8 8.33301 -12 18.833 -12 31.5s4 23.167 12 31.5s18.333 12.5 31 12.5
c13.333 0 24 -4.16699 32 -12.5s12 -18.833 12 -31.5s-4 -23.167 -12 -31.5s-18.667 -12.5 -32 -12.5c-12.667 0 -23 4.16699 -31 12.5zM226 565.503c-8 8.33301 -12 18.833 -12 31.5s4 23.167 12 31.5s18.667 12.5 32 12.5c12.667 0 23 -4.16699 31 -12.5
s12 -18.833 12 -31.5s-4 -23.167 -12 -31.5s-18.333 -12.5 -31 -12.5c-13.333 0 -24 4.16699 -32 12.5z" />
    <glyph glyph-name="aring" unicode="&#xe5;" horiz-adv-x="386" 
d="M331.5 34c8.33301 -8 22.499 -11.998 42.499 -11.998v-20c-21.333 -5.33301 -39.666 -8 -54.999 -8c-18.667 0 -33.167 5.66699 -43.5 17s-15.5 28.666 -15.5 51.999v8c-10 -26.667 -24.667 -46.834 -44 -60.501s-41.333 -20.5 -66 -20.5c-36 0 -64 12 -84 36
s-30 55.667 -30 95c0 43.333 12.333 76.666 37 99.999s62.334 42 113.001 56c31.333 8.66699 52.333 14 63 16v71c0 59.333 -21.333 89 -64 89c-44 0 -66 -29.333 -66 -88c0 -15.333 -2.66699 -25.833 -8 -31.5s-13.333 -8.5 -24 -8.5c-20.667 0 -31 11.667 -31 35
c0 21.333 6 41 18 59s28 32.333 48 43s41.667 16 65 16c41.333 0 73.666 -13.167 96.999 -39.5s35 -61.166 35 -104.499v-254c0 -22.667 4.16699 -38 12.5 -46zM227.499 59.502c14.333 21 21.501 50.501 21.501 88.501v120c-12.667 -2.66699 -31 -7.33398 -55 -14.001
c-32.667 -9.33301 -54.834 -24.833 -66.501 -46.5s-17.5 -49.167 -17.5 -82.5c0 -31.333 5.83301 -55.333 17.5 -72s27.5 -25 47.5 -25c20.667 0 38.167 10.5 52.5 31.5zM131.5 557.003c-15.667 15.333 -23.5 34.333 -23.5 57s7.83301 41.667 23.5 57s34.834 23 57.501 23
s41.834 -7.66699 57.501 -23s23.5 -34.333 23.5 -57s-7.83301 -41.667 -23.5 -57s-34.834 -23 -57.501 -23s-41.834 7.66699 -57.501 23zM226 575.003c10 10 15 23 15 39s-5 29 -15 39s-22.333 15 -37 15s-27 -5 -37 -15s-15 -23 -15 -39s5 -29 15 -39s22.333 -15 37 -15
s27 5 37 15z" />
    <glyph glyph-name="ae" unicode="&#xe6;" horiz-adv-x="594" 
d="M328 253v-20.002c0 -72 8 -125.5 24 -160.5s41.667 -52.5 77 -52.5c28 0 51.833 12.167 71.5 36.5s30.834 57.833 33.501 100.5h25c-3.33301 -52 -17.833 -92.833 -43.5 -122.5s-58.5 -44.5 -98.5 -44.5c-34.667 0 -64 10 -88 30s-42.333 47.333 -55 82
c-7.33301 -36 -22 -63.667 -44 -83s-48 -29 -78 -29c-37.333 0 -66.166 11.5 -86.499 34.5s-30.5 53.833 -30.5 92.5c0 42.667 12 75.834 36 99.501s64 41.5 120 53.5c11.333 2.66699 32.333 5.33398 63 8.00098v86c0 59.333 -22.333 89 -67 89c-46 0 -69 -29.333 -69 -88
c0 -15.333 -2.66699 -25.833 -8 -31.5s-13.333 -8.5 -24 -8.5c-20.667 0 -31 11.667 -31 35c0 21.333 6.16699 41 18.5 59s28.833 32.333 49.5 43s42.667 16 66 16c27.333 0 50.666 -6.83301 69.999 -20.5s33.666 -32.5 42.999 -56.5c12.667 24.667 28.5 43.667 47.5 57
s39.833 20 62.5 20c28 0 53.167 -8.66699 75.5 -26s39.833 -42.333 52.5 -75s19 -71 19 -115v-9h-231zM353 407.498c-13.333 -30.333 -21.333 -73.5 -24 -129.5h160c0 54 -6.83301 96.667 -20.5 128s-33.167 47 -58.5 47c-24.667 0 -43.667 -15.167 -57 -45.5zM254 251.998
c-19.333 0 -38.333 -2 -57 -6c-36 -8.66699 -59.667 -23.5 -71 -44.5s-17 -47.833 -17 -80.5c0 -30 6 -53 18 -69s28.667 -24 50 -24c22 0 40.333 10.5 55 31.5s22 50.5 22 88.5v104z" />
    <glyph glyph-name="ccedilla" unicode="&#xe7;" horiz-adv-x="358" 
d="M326 157c-4 -52.667 -17.668 -93.668 -41.001 -123.001s-54.333 -44 -93 -44c-49.333 0 -88 23 -116 69s-42 104 -42 174c0 49.333 7.66699 92.5 23 129.5s36 65.5 62 85.5s54.333 30 85 30c17.333 0 33 -3.66699 47 -11s26 -17 36 -29l16 43h16v-167h-19
c-7.33301 47.333 -18.833 82.333 -34.5 105s-36.5 34 -62.5 34c-31.333 0 -55 -19.167 -71 -57.5s-24 -92.5 -24 -162.5c0 -67.333 8.33301 -119.666 25 -156.999s41.334 -56 74.001 -56c26 0 47.5 12 64.5 36s26.833 57.667 29.5 101h25zM250.999 -64.501
c11.333 -11.667 17 -27.498 17 -47.498s-7 -35.833 -21 -47.5s-32.333 -17.5 -55 -17.5c-13.333 0 -24.833 2.66699 -34.5 8s-18.834 13.666 -27.501 24.999l14 13c6.66699 -8.66699 13 -14.834 19 -18.501s13 -5.5 21 -5.5c12 0 21.5 3.83301 28.5 11.5
s10.5 18.167 10.5 31.5s-3.33301 23.833 -10 31.5s-15.334 11.5 -26.001 11.5c-5.33301 0 -10.666 -1.5 -15.999 -4.5s-9.33301 -6.83301 -12 -11.5l-15 8l50 91l23 -1l-36 -66c6.66699 4 15.334 6 26.001 6c18 0 32.667 -5.83301 44 -17.5z" />
    <glyph glyph-name="egrave" unicode="&#xe8;" horiz-adv-x="385" 
d="M109 247v-14c0 -72 8.5 -125.5 25.5 -160.5s43.833 -52.5 80.5 -52.5c30 0 55.167 12.167 75.5 36.5s31.833 57.833 34.5 100.5h25c-3.33301 -52 -18.166 -92.833 -44.499 -122.5s-60.5 -44.5 -102.5 -44.5c-54.667 0 -96.334 22.667 -125.001 68
s-43 103.666 -43 174.999c0 49.333 7.33301 92.5 22 129.5s34.5 65.5 59.5 85.5s52.167 30 81.5 30c28.667 0 54.5 -9 77.5 -27s41.167 -43.667 54.5 -77s20 -72.666 20 -117.999v-9h-241zM135.5 406c-14.333 -31.333 -22.834 -76 -25.501 -134h170
c0 56 -7.16699 100.167 -21.5 132.5s-35.166 48.5 -62.499 48.5c-26 0 -46.167 -15.667 -60.5 -47zM205.999 534l-107.999 98.001c-8 7.33301 -12 15.666 -12 24.999c0 10 3.5 18.333 10.5 25s15.167 10 24.5 10c13.333 0 24.666 -7.66699 33.999 -23l78 -135h-27z" />
    <glyph glyph-name="eacute" unicode="&#xe9;" horiz-adv-x="385" 
d="M109 247v-14c0 -72 8.5 -125.5 25.5 -160.5s43.833 -52.5 80.5 -52.5c30 0 55.167 12.167 75.5 36.5s31.833 57.833 34.5 100.5h25c-3.33301 -52 -18.166 -92.833 -44.499 -122.5s-60.5 -44.5 -102.5 -44.5c-54.667 0 -96.334 22.667 -125.001 68
s-43 103.666 -43 174.999c0 49.333 7.33301 92.5 22 129.5s34.5 65.5 59.5 85.5s52.167 30 81.5 30c28.667 0 54.5 -9 77.5 -27s41.167 -43.667 54.5 -77s20 -72.666 20 -117.999v-9h-241zM135.5 406c-14.333 -31.333 -22.834 -76 -25.501 -134h170
c0 56 -7.16699 100.167 -21.5 132.5s-35.166 48.5 -62.499 48.5c-26 0 -46.167 -15.667 -60.5 -47zM240.999 669c9.33301 15.333 20.667 22.999 34 22.999c9.33301 0 17.5 -3.33301 24.5 -10s10.5 -15 10.5 -25c0 -9.33301 -4 -17.666 -12 -24.999l-108 -98h-27z" />
    <glyph glyph-name="ecircumflex" unicode="&#xea;" horiz-adv-x="385" 
d="M109 247v-14c0 -72 8.5 -125.5 25.5 -160.5s43.833 -52.5 80.5 -52.5c30 0 55.167 12.167 75.5 36.5s31.833 57.833 34.5 100.5h25c-3.33301 -52 -18.166 -92.833 -44.499 -122.5s-60.5 -44.5 -102.5 -44.5c-54.667 0 -96.334 22.667 -125.001 68
s-43 103.666 -43 174.999c0 49.333 7.33301 92.5 22 129.5s34.5 65.5 59.5 85.5s52.167 30 81.5 30c28.667 0 54.5 -9 77.5 -27s41.167 -43.667 54.5 -77s20 -72.666 20 -117.999v-9h-241zM135.5 406c-14.333 -31.333 -22.834 -76 -25.501 -134h170
c0 56 -7.16699 100.167 -21.5 132.5s-35.166 48.5 -62.499 48.5c-26 0 -46.167 -15.667 -60.5 -47zM286.999 543l-89 75l-90 -75h-25l97 135h36l96 -135h-25z" />
    <glyph glyph-name="edieresis" unicode="&#xeb;" horiz-adv-x="385" 
d="M109 247v-14c0 -72 8.5 -125.5 25.5 -160.5s43.833 -52.5 80.5 -52.5c30 0 55.167 12.167 75.5 36.5s31.833 57.833 34.5 100.5h25c-3.33301 -52 -18.166 -92.833 -44.499 -122.5s-60.5 -44.5 -102.5 -44.5c-54.667 0 -96.334 22.667 -125.001 68
s-43 103.666 -43 174.999c0 49.333 7.33301 92.5 22 129.5s34.5 65.5 59.5 85.5s52.167 30 81.5 30c28.667 0 54.5 -9 77.5 -27s41.167 -43.667 54.5 -77s20 -72.666 20 -117.999v-9h-241zM135.5 406c-14.333 -31.333 -22.834 -76 -25.501 -134h170
c0 56 -7.16699 100.167 -21.5 132.5s-35.166 48.5 -62.499 48.5c-26 0 -46.167 -15.667 -60.5 -47zM97.999 565.5c-8 8.33301 -12 18.833 -12 31.5s4 23.167 12 31.5s18.333 12.5 31 12.5c13.333 0 24 -4.16699 32 -12.5s12 -18.833 12 -31.5s-4 -23.167 -12 -31.5
s-18.667 -12.5 -32 -12.5c-12.667 0 -23 4.16699 -31 12.5zM234.999 565.5c-8 8.33301 -12 18.833 -12 31.5s4 23.167 12 31.5s18.667 12.5 32 12.5c12.667 0 23 -4.16699 31 -12.5s12 -18.833 12 -31.5s-4 -23.167 -12 -31.5s-18.333 -12.5 -31 -12.5
c-13.333 0 -24 4.16699 -32 12.5z" />
    <glyph glyph-name="igrave" unicode="&#xec;" horiz-adv-x="229" 
d="M78 416c-2.66699 10 -7.99902 17 -15.999 21s-20.667 6.66699 -38 8v21c49.333 1.33301 87.333 4 114 8h14v-378c0 -21.333 1.33301 -37 4 -47s7.5 -16.833 14.5 -20.5s18.833 -6.5 35.5 -8.5v-22c-32.667 4 -62.334 6 -89.001 6c-26 0 -55.667 -2 -89 -6v22
c16.667 2 28.5 4.83301 35.5 8.5s11.833 10.5 14.5 20.5s4 25.667 4 47v274c0 20.667 -1.33301 36 -4 46zM121.001 534l-107.999 98.001c-8 7.33301 -12 15.666 -12 24.999c0 10 3.5 18.333 10.5 25s15.167 10 24.5 10c13.333 0 24.666 -7.66699 33.999 -23l78 -135h-27z
" />
    <glyph glyph-name="iacute" unicode="&#xed;" horiz-adv-x="229" 
d="M78 416c-2.66699 10 -7.99902 17 -15.999 21s-20.667 6.66699 -38 8v21c49.333 1.33301 87.333 4 114 8h14v-378c0 -21.333 1.33301 -37 4 -47s7.5 -16.833 14.5 -20.5s18.833 -6.5 35.5 -8.5v-22c-32.667 4 -62.334 6 -89.001 6c-26 0 -55.667 -2 -89 -6v22
c16.667 2 28.5 4.83301 35.5 8.5s11.833 10.5 14.5 20.5s4 25.667 4 47v274c0 20.667 -1.33301 36 -4 46zM156.001 669c9.33301 15.333 20.667 22.999 34 22.999c9.33301 0 17.5 -3.33301 24.5 -10s10.5 -15 10.5 -25c0 -9.33301 -4 -17.666 -12 -24.999l-108 -98h-27z" />
    <glyph glyph-name="icircumflex" unicode="&#xee;" horiz-adv-x="229" 
d="M34 543h-25l87 135h36l86 -135h-25l-79 74zM156 49c2.66699 -10 7.50098 -16.833 14.501 -20.5s18.833 -6.5 35.5 -8.5v-22c-32.667 4 -62.334 6 -89.001 6c-26 0 -55.667 -2 -89 -6v22c16.667 2 28.5 4.83301 35.5 8.5s11.833 10.5 14.5 20.5s4 25.667 4 47v274
c0 20.667 -1.33301 36 -4 46s-8 17 -16 21s-20.667 6.66699 -38 8v21c49.333 1.33301 87.333 4 114 8h14v-378c0 -21.333 1.33301 -37 4 -47z" />
    <glyph glyph-name="idieresis" unicode="&#xef;" horiz-adv-x="229" 
d="M18 565.5c-8 8.33301 -12 18.833 -12 31.5s4 23.167 12 31.5s18.333 12.5 31 12.5c13.333 0 24 -4.16699 32 -12.5s12 -18.833 12 -31.5s-4 -23.167 -12 -31.5s-18.667 -12.5 -32 -12.5c-12.667 0 -23 4.16699 -31 12.5zM145 565.5c-8 8.33301 -12 18.833 -12 31.5
s4 23.167 12 31.5s18.667 12.5 32 12.5c12.667 0 23 -4.16699 31 -12.5s12 -18.833 12 -31.5s-4 -23.167 -12 -31.5s-18.333 -12.5 -31 -12.5c-13.333 0 -24 4.16699 -32 12.5zM78 416c-2.66699 10 -7.99902 17 -15.999 21s-20.667 6.66699 -38 8v21
c49.333 1.33301 87.333 4 114 8h14v-378c0 -21.333 1.33301 -37 4 -47s7.5 -16.833 14.5 -20.5s18.833 -6.5 35.5 -8.5v-22c-32.667 4 -62.334 6 -89.001 6c-26 0 -55.667 -2 -89 -6v22c16.667 2 28.5 4.83301 35.5 8.5s11.833 10.5 14.5 20.5s4 25.667 4 47v274
c0 20.667 -1.33301 36 -4 46z" />
    <glyph glyph-name="eth" unicode="&#xf0;" horiz-adv-x="416" 
d="M374 261c0 -180.667 -56.667 -271 -170 -271c-50 0 -90.667 19.833 -122 59.5s-47 97.167 -47 172.5c0 78 15.833 134.833 47.5 170.5s71.167 53.5 118.5 53.5c14.667 0 30 -3.5 46 -10.5s29.333 -17.833 40 -32.5c-10.667 61.333 -33 113 -67 155l-117 -59l-11 23
l110 56c-33.333 34.667 -77 61 -131 79l8 22c64 -17.333 117.667 -44 161 -80l101 51l12 -24l-92 -45c75.333 -73.333 113 -180 113 -320zM300 233c0 58.667 -8.16797 104.667 -24.501 138s-38.833 50 -67.5 50c-33.333 0 -58.166 -17.833 -74.499 -53.5
s-24.5 -84.167 -24.5 -145.5c0 -64 7.5 -114.5 22.5 -151.5s39.167 -55.5 72.5 -55.5c64 0 96 72.667 96 218z" />
    <glyph glyph-name="ntilde" unicode="&#xf1;" horiz-adv-x="449" 
d="M381 49c2.66699 -10 7.50195 -16.834 14.502 -20.501s18.833 -6.5 35.5 -8.5v-22c-32.667 4 -62.334 6 -89.001 6c-24.667 0 -53 -2 -85 -6v22c15.333 2 26.333 4.83301 33 8.5s11.167 10.334 13.5 20.001s3.5 25.5 3.5 47.5v265c0 30.667 -5.16699 52.667 -15.5 66
s-25.5 20 -45.5 20c-26.667 0 -49.167 -12 -67.5 -36s-27.5 -54.333 -27.5 -91v-224c0 -22 1.16699 -37.833 3.5 -47.5s6.83301 -16.334 13.5 -20.001s17.667 -6.5 33 -8.5v-22c-32 4 -60.333 6 -85 6c-26 0 -55.667 -2 -89 -6v22c16.667 2 28.5 4.83301 35.5 8.5
s11.833 10.5 14.5 20.5s4 25.667 4 47v274c0 20.667 -1.33301 36 -4 46s-8 17 -16 21s-20.667 6.66699 -38 8v21c49.333 1.33301 87.333 4 114 8h10v-68c12 22.667 27.667 40.334 47 53.001s41.333 19 66 19c37.333 0 66.166 -12.667 86.499 -38s30.5 -60.333 30.5 -105
v-239c0 -21.333 1.33301 -37 4 -47zM248.002 548.999c-10.667 5.33301 -22.3359 12.667 -35.0029 22c-10.667 8 -19.5 13.833 -26.5 17.5s-13.5 5.5 -19.5 5.5c-9.33301 0 -17.166 -3.66699 -23.499 -11s-11.166 -19.666 -14.499 -36.999h-21c4 67.333 27.333 101 70 101
c11.333 0 21.833 -2.5 31.5 -7.5s21.5 -12.5 35.5 -22.5c10.667 -8 19.667 -13.833 27 -17.5s14.333 -5.5 21 -5.5c9.33301 0 17 3.66699 23 11s10.667 19.666 14 36.999h21c-2 -38.667 -9.66699 -65.167 -23 -79.5s-28.666 -21.5 -45.999 -21.5
c-12 0 -23.333 2.66699 -34 8z" />
    <glyph glyph-name="ograve" unicode="&#xf2;" horiz-adv-x="408" 
d="M118 19.5c-26 19.667 -46.5 48 -61.5 85s-22.5 80.167 -22.5 129.5s7.5 92.5 22.5 129.5s35.5 65.333 61.5 85s54.667 29.5 86 29.5s60 -9.83301 86 -29.5s46.5 -48 61.5 -85s22.5 -80.167 22.5 -129.5s-7.5 -92.5 -22.5 -129.5s-35.5 -65.333 -61.5 -85
s-54.667 -29.5 -86 -29.5s-60 9.83301 -86 29.5zM300 234c0 146 -32 219 -96 219s-96 -73 -96 -219s32 -219 96 -219s96 73 96 219zM212 534l-107.999 98.001c-8 7.33301 -12 15.666 -12 24.999c0 10 3.5 18.333 10.5 25s15.167 10 24.5 10
c13.333 0 24.666 -7.66699 33.999 -23l78 -135h-27z" />
    <glyph glyph-name="oacute" unicode="&#xf3;" horiz-adv-x="408" 
d="M118 19.5c-26 19.667 -46.5 48 -61.5 85s-22.5 80.167 -22.5 129.5s7.5 92.5 22.5 129.5s35.5 65.333 61.5 85s54.667 29.5 86 29.5s60 -9.83301 86 -29.5s46.5 -48 61.5 -85s22.5 -80.167 22.5 -129.5s-7.5 -92.5 -22.5 -129.5s-35.5 -65.333 -61.5 -85
s-54.667 -29.5 -86 -29.5s-60 9.83301 -86 29.5zM300 234c0 146 -32 219 -96 219s-96 -73 -96 -219s32 -219 96 -219s96 73 96 219zM247 669c9.33301 15.333 20.667 22.999 34 22.999c9.33301 0 17.5 -3.33301 24.5 -10s10.5 -15 10.5 -25
c0 -9.33301 -4 -17.666 -12 -24.999l-108 -98h-27z" />
    <glyph glyph-name="ocircumflex" unicode="&#xf4;" horiz-adv-x="408" 
d="M118 19.5c-26 19.667 -46.5 48 -61.5 85s-22.5 80.167 -22.5 129.5s7.5 92.5 22.5 129.5s35.5 65.333 61.5 85s54.667 29.5 86 29.5s60 -9.83301 86 -29.5s46.5 -48 61.5 -85s22.5 -80.167 22.5 -129.5s-7.5 -92.5 -22.5 -129.5s-35.5 -65.333 -61.5 -85
s-54.667 -29.5 -86 -29.5s-60 9.83301 -86 29.5zM300 234c0 146 -32 219 -96 219s-96 -73 -96 -219s32 -219 96 -219s96 73 96 219zM293 543l-89 75l-90 -75h-25l97 135h36l96 -135h-25z" />
    <glyph glyph-name="otilde" unicode="&#xf5;" horiz-adv-x="408" 
d="M118 19.5c-26 19.667 -46.5 48 -61.5 85s-22.5 80.167 -22.5 129.5s7.5 92.5 22.5 129.5s35.5 65.333 61.5 85s54.667 29.5 86 29.5s60 -9.83301 86 -29.5s46.5 -48 61.5 -85s22.5 -80.167 22.5 -129.5s-7.5 -92.5 -22.5 -129.5s-35.5 -65.333 -61.5 -85
s-54.667 -29.5 -86 -29.5s-60 9.83301 -86 29.5zM300 234c0 146 -32 219 -96 219s-96 -73 -96 -219s32 -219 96 -219s96 73 96 219zM222 549c-10.667 5.33301 -22.3359 12.667 -35.0029 22c-10.667 8 -19.5 13.833 -26.5 17.5s-13.5 5.5 -19.5 5.5
c-9.33301 0 -17.166 -3.66699 -23.499 -11s-11.166 -19.666 -14.499 -36.999h-21c4 67.333 27.333 101 70 101c11.333 0 21.833 -2.5 31.5 -7.5s21.5 -12.5 35.5 -22.5c10.667 -8 19.667 -13.833 27 -17.5s14.333 -5.5 21 -5.5c9.33301 0 17 3.66699 23 11
s10.667 19.666 14 36.999h21c-2 -38.667 -9.66699 -65.167 -23 -79.5s-28.666 -21.5 -45.999 -21.5c-12 0 -23.333 2.66699 -34 8z" />
    <glyph glyph-name="odieresis" unicode="&#xf6;" horiz-adv-x="408" 
d="M118 19.5c-26 19.667 -46.5 48 -61.5 85s-22.5 80.167 -22.5 129.5s7.5 92.5 22.5 129.5s35.5 65.333 61.5 85s54.667 29.5 86 29.5s60 -9.83301 86 -29.5s46.5 -48 61.5 -85s22.5 -80.167 22.5 -129.5s-7.5 -92.5 -22.5 -129.5s-35.5 -65.333 -61.5 -85
s-54.667 -29.5 -86 -29.5s-60 9.83301 -86 29.5zM300 234c0 146 -32 219 -96 219s-96 -73 -96 -219s32 -219 96 -219s96 73 96 219zM104 565.5c-8 8.33301 -12 18.833 -12 31.5s4 23.167 12 31.5s18.333 12.5 31 12.5c13.333 0 24 -4.16699 32 -12.5s12 -18.833 12 -31.5
s-4 -23.167 -12 -31.5s-18.667 -12.5 -32 -12.5c-12.667 0 -23 4.16699 -31 12.5zM241 565.5c-8 8.33301 -12 18.833 -12 31.5s4 23.167 12 31.5s18.667 12.5 32 12.5c12.667 0 23 -4.16699 31 -12.5s12 -18.833 12 -31.5s-4 -23.167 -12 -31.5s-18.333 -12.5 -31 -12.5
c-13.333 0 -24 4.16699 -32 12.5z" />
    <glyph glyph-name="divide" unicode="&#xf7;" 
d="M195 417.5c-6.66699 7 -10 15.5 -10 25.5s3.33301 18.5 10 25.5s15 10.5 25 10.5s18.333 -3.5 25 -10.5s10 -15.5 10 -25.5s-3.33301 -18.5 -10 -25.5s-15 -10.5 -25 -10.5s-18.333 3.5 -25 10.5zM47 313h346v-31h-346v31zM195 126.5c-6.66699 7 -10 15.5 -10 25.5
s3.33301 18.5 10 25.5s15 10.5 25 10.5s18.333 -3.5 25 -10.5s10 -15.5 10 -25.5s-3.33301 -18.5 -10 -25.5s-15 -10.5 -25 -10.5s-18.333 3.5 -25 10.5z" />
    <glyph glyph-name="oslash" unicode="&#xf8;" horiz-adv-x="417" 
d="M335 403c28.667 -43.333 43 -99.667 43 -169c0 -49.333 -7.5 -92.5 -22.5 -129.5s-35.5 -65.333 -61.5 -85s-54.667 -29.5 -86 -29.5c-40 0 -74.667 15.333 -104 46l-34 -52l-24 13l39 62c-31.333 44 -47 102.333 -47 175c0 49.333 7.5 92.5 22.5 129.5
s35.5 65.333 61.5 85s54.667 29.5 86 29.5c42.667 0 79 -17 109 -51l37 60l24 -13zM112 233.999c0 -49.333 3.33203 -89.333 9.99902 -120l165 267c-15.333 48 -41.666 72 -78.999 72c-64 0 -96 -73 -96 -219zM303.999 233.999c0 39.333 -2.66699 75.667 -8 109l-163 -266
c15.333 -41.333 40.333 -62 75 -62c64 0 96 73 96 219z" />
    <glyph glyph-name="ugrave" unicode="&#xf9;" horiz-adv-x="447" 
d="M373 54c2.66699 -10 8.00098 -17.001 16.001 -21.001s20.667 -6.66699 38 -8v-21c-49.333 -1.33301 -87.333 -4 -114 -8h-10v75c-10.667 -25.333 -26 -45.166 -46 -59.499s-42.667 -21.5 -68 -21.5c-38 0 -66.833 11.667 -86.5 35s-29.5 56.333 -29.5 99v246
c0 20.667 -1.33301 36 -4 46s-8 17 -16 21s-20.667 6.66699 -38 8v21c49.333 1.33301 87.333 4 114 8h14v-347c0 -33.333 5.5 -57.5 16.5 -72.5s27.167 -22.5 48.5 -22.5c26 0 47.667 11 65 33s26 49.667 26 83v222c0 20.667 -1.5 36 -4.5 46s-8.66699 17 -17 21
s-21.833 6.66699 -40.5 8v21c51.333 1.33301 90.666 4 117.999 8h14v-374c0 -20.667 1.33301 -36 4 -46zM223.001 533.999l-107.999 98.001c-8 7.33301 -12 15.666 -12 24.999c0 10 3.5 18.333 10.5 25s15.167 10 24.5 10c13.333 0 24.666 -7.66699 33.999 -23l78 -135h-27z
" />
    <glyph glyph-name="uacute" unicode="&#xfa;" horiz-adv-x="447" 
d="M373 54c2.66699 -10 8.00098 -17.001 16.001 -21.001s20.667 -6.66699 38 -8v-21c-49.333 -1.33301 -87.333 -4 -114 -8h-10v75c-10.667 -25.333 -26 -45.166 -46 -59.499s-42.667 -21.5 -68 -21.5c-38 0 -66.833 11.667 -86.5 35s-29.5 56.333 -29.5 99v246
c0 20.667 -1.33301 36 -4 46s-8 17 -16 21s-20.667 6.66699 -38 8v21c49.333 1.33301 87.333 4 114 8h14v-347c0 -33.333 5.5 -57.5 16.5 -72.5s27.167 -22.5 48.5 -22.5c26 0 47.667 11 65 33s26 49.667 26 83v222c0 20.667 -1.5 36 -4.5 46s-8.66699 17 -17 21
s-21.833 6.66699 -40.5 8v21c51.333 1.33301 90.666 4 117.999 8h14v-374c0 -20.667 1.33301 -36 4 -46zM258.001 668.999c9.33301 15.333 20.667 22.999 34 22.999c9.33301 0 17.5 -3.33301 24.5 -10s10.5 -15 10.5 -25c0 -9.33301 -4 -17.666 -12 -24.999l-108 -98h-27z
" />
    <glyph glyph-name="ucircumflex" unicode="&#xfb;" horiz-adv-x="447" 
d="M373 54c2.66699 -10 8.00098 -17.001 16.001 -21.001s20.667 -6.66699 38 -8v-21c-49.333 -1.33301 -87.333 -4 -114 -8h-10v75c-10.667 -25.333 -26 -45.166 -46 -59.499s-42.667 -21.5 -68 -21.5c-38 0 -66.833 11.667 -86.5 35s-29.5 56.333 -29.5 99v246
c0 20.667 -1.33301 36 -4 46s-8 17 -16 21s-20.667 6.66699 -38 8v21c49.333 1.33301 87.333 4 114 8h14v-347c0 -33.333 5.5 -57.5 16.5 -72.5s27.167 -22.5 48.5 -22.5c26 0 47.667 11 65 33s26 49.667 26 83v222c0 20.667 -1.5 36 -4.5 46s-8.66699 17 -17 21
s-21.833 6.66699 -40.5 8v21c51.333 1.33301 90.666 4 117.999 8h14v-374c0 -20.667 1.33301 -36 4 -46zM304.001 542.999l-89 75l-90 -75h-25l97 135h36l96 -135h-25z" />
    <glyph glyph-name="udieresis" unicode="&#xfc;" horiz-adv-x="447" 
d="M373 54c2.66699 -10 8.00098 -17.001 16.001 -21.001s20.667 -6.66699 38 -8v-21c-49.333 -1.33301 -87.333 -4 -114 -8h-10v75c-10.667 -25.333 -26 -45.166 -46 -59.499s-42.667 -21.5 -68 -21.5c-38 0 -66.833 11.667 -86.5 35s-29.5 56.333 -29.5 99v246
c0 20.667 -1.33301 36 -4 46s-8 17 -16 21s-20.667 6.66699 -38 8v21c49.333 1.33301 87.333 4 114 8h14v-347c0 -33.333 5.5 -57.5 16.5 -72.5s27.167 -22.5 48.5 -22.5c26 0 47.667 11 65 33s26 49.667 26 83v222c0 20.667 -1.5 36 -4.5 46s-8.66699 17 -17 21
s-21.833 6.66699 -40.5 8v21c51.333 1.33301 90.666 4 117.999 8h14v-374c0 -20.667 1.33301 -36 4 -46zM115.001 565.499c-8 8.33301 -12 18.833 -12 31.5s4 23.167 12 31.5s18.333 12.5 31 12.5c13.333 0 24 -4.16699 32 -12.5s12 -18.833 12 -31.5s-4 -23.167 -12 -31.5
s-18.667 -12.5 -32 -12.5c-12.667 0 -23 4.16699 -31 12.5zM252.001 565.499c-8 8.33301 -12 18.833 -12 31.5s4 23.167 12 31.5s18.667 12.5 32 12.5c12.667 0 23 -4.16699 31 -12.5s12 -18.833 12 -31.5s-4 -23.167 -12 -31.5s-18.333 -12.5 -31 -12.5
c-13.333 0 -24 4.16699 -32 12.5z" />
    <glyph glyph-name="yacute" unicode="&#xfd;" horiz-adv-x="402" 
d="M403 471l0.00195312 -22.001c-13.333 -2.66699 -23 -5.5 -29 -8.5s-10.833 -7.83301 -14.5 -14.5s-8.5 -18.334 -14.5 -35.001l-167 -470c-13.333 -38 -27.333 -63.833 -42 -77.5s-33.334 -20.5 -56.001 -20.5c-24.667 0 -44.334 6 -59.001 18s-22 27.333 -22 46
c0 24.667 11.333 37 34 37c20.667 0 32.334 -13 35.001 -39c0.666992 -10.667 3.5 -18.334 8.5 -23.001s12.167 -7 21.5 -7c8 0 16.333 4.33301 25 13s18 26.334 28 53.001l40 114l-129 356c-8.66699 23.333 -17.834 38.5 -27.501 45.5s-21.5 11.167 -35.5 12.5v22
c29.333 -4 57.333 -6 84 -6c33.333 0 64.333 2 93 6v-22c-18 -1.33301 -30.5 -3.5 -37.5 -6.5s-10.5 -8.5 -10.5 -16.5c0 -6 2.66699 -17 8 -33l90 -260l90 258c4.66699 12 7 22 7 30c0 8.66699 -3.33301 14.834 -10 18.501s-19 6.83398 -37 9.50098v22c24 -4 46 -6 66 -6
c20.667 0 41 2 61 6zM263.002 668.999c9.33301 15.333 20.667 22.999 34 22.999c9.33301 0 17.5 -3.33301 24.5 -10s10.5 -15 10.5 -25c0 -9.33301 -4 -17.666 -12 -24.999l-108 -98h-27z" />
    <glyph glyph-name="thorn" unicode="&#xfe;" horiz-adv-x="422" 
d="M313.5 448c23.667 -20 42.002 -48.499 55.002 -85.499s19.5 -80.167 19.5 -129.5c0 -48 -7.5 -90.5 -22.5 -127.5s-34.833 -65.5 -59.5 -85.5s-51 -30 -79 -30c-40.667 0 -72.334 21.333 -95.001 64v-130c0 -22 1.33301 -37.833 4 -47.5s8 -16.334 16 -20.001
s21.333 -6.5 40 -8.5v-22c-34 4 -65 6 -93 6h-2c-26.667 0 -56.334 -2 -89.001 -6v22c16.667 2 28.5 4.83301 35.5 8.5s11.833 10.5 14.5 20.5s4 25.667 4 47v650c0 20.667 -1.33301 36 -4 46s-8 17 -16 21s-20.667 6.66699 -38 8v21c49.333 1.33301 87.333 4 114 8h14v-269
c24.667 46 57.667 69 99 69c31.333 0 58.833 -10 82.5 -30zM314.002 232.001c0 66.667 -7.83301 119.332 -23.5 157.999s-39.167 58 -70.5 58c-28 0 -50.333 -18.167 -67 -54.5s-25 -90.166 -25 -161.499c0 -69.333 8.5 -122.833 25.5 -160.5s40.167 -56.5 69.5 -56.5
c60.667 0 91 72.333 91 217z" />
    <glyph glyph-name="ydieresis" unicode="&#xff;" horiz-adv-x="402" 
d="M403 471l0.00195312 -22.001c-13.333 -2.66699 -23 -5.5 -29 -8.5s-10.833 -7.83301 -14.5 -14.5s-8.5 -18.334 -14.5 -35.001l-167 -470c-13.333 -38 -27.333 -63.833 -42 -77.5s-33.334 -20.5 -56.001 -20.5c-24.667 0 -44.334 6 -59.001 18s-22 27.333 -22 46
c0 24.667 11.333 37 34 37c20.667 0 32.334 -13 35.001 -39c0.666992 -10.667 3.5 -18.334 8.5 -23.001s12.167 -7 21.5 -7c8 0 16.333 4.33301 25 13s18 26.334 28 53.001l40 114l-129 356c-8.66699 23.333 -17.834 38.5 -27.501 45.5s-21.5 11.167 -35.5 12.5v22
c29.333 -4 57.333 -6 84 -6c33.333 0 64.333 2 93 6v-22c-18 -1.33301 -30.5 -3.5 -37.5 -6.5s-10.5 -8.5 -10.5 -16.5c0 -6 2.66699 -17 8 -33l90 -260l90 258c4.66699 12 7 22 7 30c0 8.66699 -3.33301 14.834 -10 18.501s-19 6.83398 -37 9.50098v22c24 -4 46 -6 66 -6
c20.667 0 41 2 61 6zM120.002 565.499c-8 8.33301 -12 18.833 -12 31.5s4 23.167 12 31.5s18.333 12.5 31 12.5c13.333 0 24 -4.16699 32 -12.5s12 -18.833 12 -31.5s-4 -23.167 -12 -31.5s-18.667 -12.5 -32 -12.5c-12.667 0 -23 4.16699 -31 12.5zM257.002 565.499
c-8 8.33301 -12 18.833 -12 31.5s4 23.167 12 31.5s18.667 12.5 32 12.5c12.667 0 23 -4.16699 31 -12.5s12 -18.833 12 -31.5s-4 -23.167 -12 -31.5s-18.333 -12.5 -31 -12.5c-13.333 0 -24 4.16699 -32 12.5z" />
    <glyph glyph-name="Amacron" unicode="&#x100;" horiz-adv-x="497" 
d="M453 48.5c5.33301 -10.333 11.6689 -17.168 19.002 -20.501s19.333 -6 36 -8v-22c-42.667 4 -74.334 6 -95.001 6c-22 0 -57 -2 -105 -6v22c21.333 2 35.833 5 43.5 9s11.5 11.667 11.5 23c0 12.667 -3.33301 29.334 -10 50.001l-31 102h-192l-29 -102
c-6.66699 -24.667 -10 -41 -10 -49c0 -12 4 -20 12 -24s22.333 -7 43 -9v-22c-36 4 -63.333 6 -82 6c-12 0 -25.167 -0.833008 -39.5 -2.5s-23.833 -2.83398 -28.5 -3.50098v22c16.667 2 29.167 5.16699 37.5 9.5s15.166 11.833 20.499 22.5s11.333 27.334 18 50.001
l163 576h12l186 -577c8 -24.667 14.667 -42.167 20 -52.5zM313.003 231.998l-90 294l-85 -294h175zM366.003 796.998v-36h-250v36h250z" />
    <glyph glyph-name="amacron" unicode="&#x101;" horiz-adv-x="386" 
d="M331.5 34c8.33301 -8 22.499 -11.998 42.499 -11.998v-20c-21.333 -5.33301 -39.666 -8 -54.999 -8c-18.667 0 -33.167 5.66699 -43.5 17s-15.5 28.666 -15.5 51.999v8c-10 -26.667 -24.667 -46.834 -44 -60.501s-41.333 -20.5 -66 -20.5c-36 0 -64 12 -84 36
s-30 55.667 -30 95c0 43.333 12.333 76.666 37 99.999s62.334 42 113.001 56c31.333 8.66699 52.333 14 63 16v71c0 59.333 -21.333 89 -64 89c-44 0 -66 -29.333 -66 -88c0 -15.333 -2.66699 -25.833 -8 -31.5s-13.333 -8.5 -24 -8.5c-20.667 0 -31 11.667 -31 35
c0 21.333 6 41 18 59s28 32.333 48 43s41.667 16 65 16c41.333 0 73.666 -13.167 96.999 -39.5s35 -61.166 35 -104.499v-254c0 -22.667 4.16699 -38 12.5 -46zM227.499 59.502c14.333 21 21.501 50.501 21.501 88.501v120c-12.667 -2.66699 -31 -7.33398 -55 -14.001
c-32.667 -9.33301 -54.834 -24.833 -66.501 -46.5s-17.5 -49.167 -17.5 -82.5c0 -31.333 5.83301 -55.333 17.5 -72s27.5 -25 47.5 -25c20.667 0 38.167 10.5 52.5 31.5zM299 595.003v-35h-221v35h221z" />
    <glyph glyph-name="Abreve" unicode="&#x102;" horiz-adv-x="497" 
d="M453 48.5c5.33301 -10.333 11.6689 -17.168 19.002 -20.501s19.333 -6 36 -8v-22c-42.667 4 -74.334 6 -95.001 6c-22 0 -57 -2 -105 -6v22c21.333 2 35.833 5 43.5 9s11.5 11.667 11.5 23c0 12.667 -3.33301 29.334 -10 50.001l-31 102h-192l-29 -102
c-6.66699 -24.667 -10 -41 -10 -49c0 -12 4 -20 12 -24s22.333 -7 43 -9v-22c-36 4 -63.333 6 -82 6c-12 0 -25.167 -0.833008 -39.5 -2.5s-23.833 -2.83398 -28.5 -3.50098v22c16.667 2 29.167 5.16699 37.5 9.5s15.166 11.833 20.499 22.5s11.333 27.334 18 50.001
l163 576h12l186 -577c8 -24.667 14.667 -42.167 20 -52.5zM313.003 231.998l-90 294l-85 -294h175zM304.503 813.498c17 10.333 26.833 25.167 29.5 44.5h24c-3.33301 -39.333 -15.5 -68.833 -36.5 -88.5s-47.833 -29.5 -80.5 -29.5c-33.333 0 -60.333 9.83301 -81 29.5
s-32.667 49.167 -36 88.5h24c2.66699 -20 12.5 -35 29.5 -45s38.167 -15 63.5 -15s46.5 5.16699 63.5 15.5z" />
    <glyph glyph-name="abreve" unicode="&#x103;" horiz-adv-x="386" 
d="M331.5 34c8.33301 -8 22.499 -11.998 42.499 -11.998v-20c-21.333 -5.33301 -39.666 -8 -54.999 -8c-18.667 0 -33.167 5.66699 -43.5 17s-15.5 28.666 -15.5 51.999v8c-10 -26.667 -24.667 -46.834 -44 -60.501s-41.333 -20.5 -66 -20.5c-36 0 -64 12 -84 36
s-30 55.667 -30 95c0 43.333 12.333 76.666 37 99.999s62.334 42 113.001 56c31.333 8.66699 52.333 14 63 16v71c0 59.333 -21.333 89 -64 89c-44 0 -66 -29.333 -66 -88c0 -15.333 -2.66699 -25.833 -8 -31.5s-13.333 -8.5 -24 -8.5c-20.667 0 -31 11.667 -31 35
c0 21.333 6 41 18 59s28 32.333 48 43s41.667 16 65 16c41.333 0 73.666 -13.167 96.999 -39.5s35 -61.166 35 -104.499v-254c0 -22.667 4.16699 -38 12.5 -46zM227.499 59.502c14.333 21 21.501 50.501 21.501 88.501v120c-12.667 -2.66699 -31 -7.33398 -55 -14.001
c-32.667 -9.33301 -54.834 -24.833 -66.501 -46.5s-17.5 -49.167 -17.5 -82.5c0 -31.333 5.83301 -55.333 17.5 -72s27.5 -25 47.5 -25c20.667 0 38.167 10.5 52.5 31.5zM243 615.003c14.667 13.333 23.665 33.667 26.998 61h24c-2 -46.667 -12.167 -81.334 -30.5 -104.001
s-43.166 -34 -74.499 -34s-56.166 11.333 -74.499 34s-28.5 57.334 -30.5 104.001h24c3.33301 -28 12.333 -48.5 27 -61.5s32.667 -19.5 54 -19.5s39.333 6.66699 54 20z" />
    <glyph glyph-name="Aogonek" unicode="&#x104;" horiz-adv-x="497" 
d="M453 48.5c5.33301 -10.333 11.6689 -17.168 19.002 -20.501s19.333 -6 36 -8v-22c-42.667 4 -74.334 6 -95.001 6c-22 0 -57 -2 -105 -6v22c21.333 2 35.833 5 43.5 9s11.5 11.667 11.5 23c0 12.667 -3.33301 29.334 -10 50.001l-31 102h-192l-29 -102
c-6.66699 -24.667 -10 -41 -10 -49c0 -12 4 -20 12 -24s22.333 -7 43 -9v-22c-36 4 -63.333 6 -82 6c-12 0 -25.167 -0.833008 -39.5 -2.5s-23.833 -2.83398 -28.5 -3.50098v22c16.667 2 29.167 5.16699 37.5 9.5s15.166 11.833 20.499 22.5s11.333 27.334 18 50.001
l163 576h12l186 -577c8 -24.667 14.667 -42.167 20 -52.5zM313.003 231.998l-90 294l-85 -294h175zM344.003 -158.002c-15.333 12.667 -22.999 29.3301 -22.999 49.9971c0 18.667 7.16699 36.834 21.5 54.501s36.166 35.834 65.499 54.501l20 13h23
c-51.333 -45.333 -77 -83.666 -77 -114.999c0 -14.667 3.83301 -26.167 11.5 -34.5s19.167 -12.5 34.5 -12.5c27.333 0 48.666 15 63.999 45l19 -10c-18 -42.667 -49.667 -64 -95 -64c-27.333 0 -48.666 6.33301 -63.999 19z" />
    <glyph glyph-name="aogonek" unicode="&#x105;" horiz-adv-x="386" 
d="M277.5 -57c-7.66699 -16 -11.4971 -31.6641 -11.4971 -46.9971c0 -13.333 3.33301 -24 10 -32s14.667 -12 24 -12c23.333 0 41.666 13.333 54.999 40l19 -10c-8.66699 -18.667 -19.834 -33.334 -33.501 -44.001s-32.167 -16 -55.5 -16c-22 0 -39.333 6.16699 -52 18.5
s-19 28.5 -19 48.5c0 18.667 6.66699 36.5 20 53.5s35 35.167 65 54.5c-26 7.33301 -39 29.333 -39 66v8c-10 -26.667 -24.667 -46.834 -44 -60.501s-41.333 -20.5 -66 -20.5c-36 0 -64 12 -84 36s-30 55.667 -30 95c0 43.333 12.333 76.666 37 99.999s62.334 42 113.001 56
c31.333 8.66699 52.333 14 63 16v71c0 59.333 -21.333 89 -64 89c-44 0 -66 -29.333 -66 -88c0 -15.333 -2.66699 -25.833 -8 -31.5s-13.333 -8.5 -24 -8.5c-20.667 0 -31 11.667 -31 35c0 21.333 6 41 18 59s28 32.333 48 43s41.667 16 65 16
c41.333 0 73.666 -13.167 96.999 -39.5s35 -61.166 35 -104.499v-254c0 -22.667 4.16699 -38 12.5 -46s22.5 -12 42.5 -12v-20c-16.667 -4.66699 -32.667 -7.33398 -48 -8.00098c-24.667 -18 -40.834 -35 -48.501 -51zM227.503 59.5029
c14.333 21 21.501 50.501 21.501 88.501v120c-12.667 -2.66699 -31 -7.33398 -55 -14.001c-32.667 -9.33301 -54.834 -24.833 -66.501 -46.5s-17.5 -49.167 -17.5 -82.5c0 -31.333 5.83301 -55.333 17.5 -72s27.5 -25 47.5 -25c20.667 0 38.167 10.5 52.5 31.5z" />
    <glyph glyph-name="Cacute" unicode="&#x106;" horiz-adv-x="480" 
d="M444 227c-4 -80 -22.002 -139.504 -54.002 -178.504s-73.333 -58.5 -124 -58.5c-42.667 0 -81 13.333 -115 40s-60.667 65.834 -80 117.501s-29 113.834 -29 186.501s10 134.834 30 186.501s47.167 90.834 81.5 117.501s72.833 40 115.5 40c28 0 53 -6 75 -18
s39.667 -27.333 53 -46l22 64h14v-210h-18c-11.333 64 -28.666 110.667 -51.999 140s-54.666 44 -93.999 44c-48.667 0 -85.167 -27.667 -109.5 -83s-36.5 -133.666 -36.5 -234.999c0 -102.667 13 -179.834 39 -231.501s65.667 -77.5 119 -77.5
c36.667 0 67.667 16.333 93 49s40 83.667 44 153h26zM302.998 841.996c8 10 14.8311 16.832 20.498 20.499s12.834 5.5 21.501 5.5s16.334 -3.33301 23.001 -10s10 -15 10 -25c0 -6.66699 -2 -13.167 -6 -19.5s-12.333 -13.166 -25 -20.499l-105 -59h-29z" />
    <glyph glyph-name="cacute" unicode="&#x107;" horiz-adv-x="358" 
d="M326 157c-4 -52.667 -17.668 -93.668 -41.001 -123.001s-54.333 -44 -93 -44c-49.333 0 -88 23 -116 69s-42 104 -42 174c0 49.333 7.66699 92.5 23 129.5s36 65.5 62 85.5s54.333 30 85 30c17.333 0 33 -3.66699 47 -11s26 -17 36 -29l16 43h16v-167h-19
c-7.33301 47.333 -18.833 82.333 -34.5 105s-36.5 34 -62.5 34c-31.333 0 -55 -19.167 -71 -57.5s-24 -92.5 -24 -162.5c0 -67.333 8.33301 -119.666 25 -156.999s41.334 -56 74.001 -56c26 0 47.5 12 64.5 36s26.833 57.667 29.5 101h25zM236.999 668.999
c9.33301 15.333 20.667 22.999 34 22.999c9.33301 0 17.5 -3.33301 24.5 -10s10.5 -15 10.5 -25c0 -9.33301 -4 -17.666 -12 -24.999l-108 -98h-27z" />
    <glyph glyph-name="Ccircumflex" unicode="&#x108;" horiz-adv-x="480" 
d="M444 227c-4 -80 -22.002 -139.504 -54.002 -178.504s-73.333 -58.5 -124 -58.5c-42.667 0 -81 13.333 -115 40s-60.667 65.834 -80 117.501s-29 113.834 -29 186.501s10 134.834 30 186.501s47.167 90.834 81.5 117.501s72.833 40 115.5 40c28 0 53 -6 75 -18
s39.667 -27.333 53 -46l22 64h14v-210h-18c-11.333 64 -28.666 110.667 -51.999 140s-54.666 44 -93.999 44c-48.667 0 -85.167 -27.667 -109.5 -83s-36.5 -133.666 -36.5 -234.999c0 -102.667 13 -179.834 39 -231.501s65.667 -77.5 119 -77.5
c36.667 0 67.667 16.333 93 49s40 83.667 44 153h26zM362.998 742.996l-99 60l-99 -60h-29l108 115h41l107 -115h-29z" />
    <glyph glyph-name="ccircumflex" unicode="&#x109;" horiz-adv-x="358" 
d="M326 157c-4 -52.667 -17.668 -93.668 -41.001 -123.001s-54.333 -44 -93 -44c-49.333 0 -88 23 -116 69s-42 104 -42 174c0 49.333 7.66699 92.5 23 129.5s36 65.5 62 85.5s54.333 30 85 30c17.333 0 33 -3.66699 47 -11s26 -17 36 -29l16 43h16v-167h-19
c-7.33301 47.333 -18.833 82.333 -34.5 105s-36.5 34 -62.5 34c-31.333 0 -55 -19.167 -71 -57.5s-24 -92.5 -24 -162.5c0 -67.333 8.33301 -119.666 25 -156.999s41.334 -56 74.001 -56c26 0 47.5 12 64.5 36s26.833 57.667 29.5 101h25zM282.999 542.999l-89 75l-90 -75
h-25l97 135h36l96 -135h-25z" />
    <glyph glyph-name="Cdotaccent" unicode="&#x10a;" horiz-adv-x="480" 
d="M444 227c-4 -80 -22.002 -139.504 -54.002 -178.504s-73.333 -58.5 -124 -58.5c-42.667 0 -81 13.333 -115 40s-60.667 65.834 -80 117.501s-29 113.834 -29 186.501s10 134.834 30 186.501s47.167 90.834 81.5 117.501s72.833 40 115.5 40c28 0 53 -6 75 -18
s39.667 -27.333 53 -46l22 64h14v-210h-18c-11.333 64 -28.666 110.667 -51.999 140s-54.666 44 -93.999 44c-48.667 0 -85.167 -27.667 -109.5 -83s-36.5 -133.666 -36.5 -234.999c0 -102.667 13 -179.834 39 -231.501s65.667 -77.5 119 -77.5
c36.667 0 67.667 16.333 93 49s40 83.667 44 153h26zM228.498 746.996c-9 9.33301 -13.5 21.333 -13.5 36s4.5 26.667 13.5 36s20.833 14 35.5 14s26.5 -4.66699 35.5 -14s13.5 -21.333 13.5 -36s-4.5 -26.667 -13.5 -36s-20.833 -14 -35.5 -14s-26.5 4.66699 -35.5 14z" />
    <glyph glyph-name="cdotaccent" unicode="&#x10b;" horiz-adv-x="358" 
d="M326 157c-4 -52.667 -17.668 -93.668 -41.001 -123.001s-54.333 -44 -93 -44c-49.333 0 -88 23 -116 69s-42 104 -42 174c0 49.333 7.66699 92.5 23 129.5s36 65.5 62 85.5s54.333 30 85 30c17.333 0 33 -3.66699 47 -11s26 -17 36 -29l16 43h16v-167h-19
c-7.33301 47.333 -18.833 82.333 -34.5 105s-36.5 34 -62.5 34c-31.333 0 -55 -19.167 -71 -57.5s-24 -92.5 -24 -162.5c0 -67.333 8.33301 -119.666 25 -156.999s41.334 -56 74.001 -56c26 0 47.5 12 64.5 36s26.833 57.667 29.5 101h25zM159.499 571.999
c-9 9.33301 -13.5 21 -13.5 35s4.5 25.667 13.5 35s20.5 14 34.5 14s25.5 -4.66699 34.5 -14s13.5 -21 13.5 -35s-4.5 -25.667 -13.5 -35s-20.5 -14 -34.5 -14s-25.5 4.66699 -34.5 14z" />
    <glyph glyph-name="Ccaron" unicode="&#x10c;" horiz-adv-x="480" 
d="M444 227c-4 -80 -22.002 -139.504 -54.002 -178.504s-73.333 -58.5 -124 -58.5c-42.667 0 -81 13.333 -115 40s-60.667 65.834 -80 117.501s-29 113.834 -29 186.501s10 134.834 30 186.501s47.167 90.834 81.5 117.501s72.833 40 115.5 40c28 0 53 -6 75 -18
s39.667 -27.333 53 -46l22 64h14v-210h-18c-11.333 64 -28.666 110.667 -51.999 140s-54.666 44 -93.999 44c-48.667 0 -85.167 -27.667 -109.5 -83s-36.5 -133.666 -36.5 -234.999c0 -102.667 13 -179.834 39 -231.501s65.667 -77.5 119 -77.5
c36.667 0 67.667 16.333 93 49s40 83.667 44 153h26zM391.998 857.996l-107 -115h-41l-108 115h29l99 -60l99 60h29z" />
    <glyph glyph-name="ccaron" unicode="&#x10d;" horiz-adv-x="358" 
d="M326 157c-4 -52.667 -17.668 -93.668 -41.001 -123.001s-54.333 -44 -93 -44c-49.333 0 -88 23 -116 69s-42 104 -42 174c0 49.333 7.66699 92.5 23 129.5s36 65.5 62 85.5s54.333 30 85 30c17.333 0 33 -3.66699 47 -11s26 -17 36 -29l16 43h16v-167h-19
c-7.33301 47.333 -18.833 82.333 -34.5 105s-36.5 34 -62.5 34c-31.333 0 -55 -19.167 -71 -57.5s-24 -92.5 -24 -162.5c0 -67.333 8.33301 -119.666 25 -156.999s41.334 -56 74.001 -56c26 0 47.5 12 64.5 36s26.833 57.667 29.5 101h25zM307.999 677.999l-96 -135h-36
l-97 135h25l90 -75l89 75h25z" />
    <glyph glyph-name="Dcaron" unicode="&#x10e;" horiz-adv-x="536" 
d="M367.5 626.5c39.667 -27.667 71 -66.834 94 -117.501s34.5 -109 34.5 -175s-11.5 -124.333 -34.5 -175s-54.333 -89.834 -94 -117.501s-83.5 -41.5 -131.5 -41.5h-204v22c19.333 1.33301 33.333 3.83301 42 7.5s14.667 10.834 18 21.501s5 27.667 5 51v464
c0 23.333 -1.66699 40.333 -5 51s-9.33301 17.834 -18 21.501s-22.667 6.16699 -42 7.5v22h204c48 0 91.833 -13.833 131.5 -41.5zM367.5 111c31.667 55.333 47.5 129.668 47.5 223.001s-15.833 167.666 -47.5 222.999s-78.167 83 -139.5 83h-55v-572
c0 -15.333 3 -25.833 9 -31.5s19.333 -8.5 40 -8.5h6c61.333 0 107.833 27.667 139.5 83zM366 858.002l-107 -115h-41l-108 115h29l99 -60l99 60h29z" />
    <glyph glyph-name="dcaron" unicode="&#x10f;" horiz-adv-x="439" 
d="M498 675.5c6.66699 -6.33301 10 -15.167 10 -26.5c0 -8 -2 -17.667 -6 -29l-53 -132h-17l8 154c0.666992 13.333 4.16699 23.833 10.5 31.5s14.833 11.5 25.5 11.5c8 0 15.333 -3.16699 22 -9.5zM365 53.999c2.66699 -10 8 -17 16 -21s20.667 -6.66699 38 -8v-21
c-49.333 -1.33301 -87.333 -4 -114 -8h-9v76c-12 -26.667 -27 -47 -45 -61s-38 -21 -60 -21c-31.333 0 -58.833 10 -82.5 30s-42 48.5 -55 85.5s-19.5 80.167 -19.5 129.5c0 48 7.5 90.5 22.5 127.5s34.833 65.5 59.5 85.5s51 30 79 30c42 0 74 -22 96 -66v162
c0 20.667 -1.33301 36 -4 46s-8 17 -16 21s-20.667 6.66699 -38 8v21c49.333 1.33301 87.333 4 114 8h14v-578c0 -20.667 1.33301 -36 4 -46zM269 74.499c16.667 36.333 25 90.168 25 161.501c0 69.333 -8.5 122.833 -25.5 160.5s-40.167 56.5 -69.5 56.5
c-60.667 0 -91 -72.333 -91 -217c0 -66.667 7.83301 -119.334 23.5 -158.001s39.167 -58 70.5 -58c28 0 50.333 18.167 67 54.5z" />
    <glyph glyph-name="Dcroat" unicode="&#x110;" horiz-adv-x="539" 
d="M370.5 626.5c39.667 -27.667 71 -66.834 94 -117.501s34.5 -109 34.5 -175s-11.5 -124.333 -34.5 -175s-54.333 -89.834 -94 -117.501s-83.5 -41.5 -131.5 -41.5h-204v22c19.333 1.33301 33.333 3.83301 42 7.5s14.667 10.834 18 21.501s5 27.667 5 51v228h-73v28h73v208
c0 23.333 -1.66699 40.333 -5 51s-9.33301 17.834 -18 21.501s-22.667 6.16699 -42 7.5v22h204c48 0 91.833 -13.833 131.5 -41.5zM370.5 111c31.667 55.333 47.5 129.668 47.5 223.001s-15.833 167.666 -47.5 222.999s-78.167 83 -139.5 83h-55v-282h106v-28h-106v-262
c0 -15.333 3 -25.833 9 -31.5s19.333 -8.5 40 -8.5h6c61.333 0 107.833 27.667 139.5 83z" />
    <glyph glyph-name="dcroat" unicode="&#x111;" horiz-adv-x="436" 
d="M361 536v-435.998c0 -20.667 1.33301 -36 4 -46s8 -17 16 -21s20.667 -6.66699 38 -8v-21c-49.333 -1.33301 -87.333 -4 -114 -8h-9v75c-12 -26.667 -27 -46.834 -45 -60.501s-38 -20.5 -60 -20.5c-31.333 0 -58.833 10 -82.5 30s-42 48.167 -55 84.5
s-19.5 78.166 -19.5 125.499c0 46.667 7.5 88 22.5 124s35 64 60 84s51.167 30 78.5 30c42 0 74 -21.667 96 -65v133h-147v26h147v12c0 20.667 -1.33301 36 -4 46s-8 17 -16 21s-20.667 6.66699 -38 8v21c49.333 1.33301 87.333 4 114 8h14v-116h72v-26h-72zM269 73.502
c16.667 35.667 25 88.167 25 157.5c0 66.667 -8.66699 118.667 -26 156s-40.333 56 -69 56c-30.667 0 -53.5 -18.333 -68.5 -55s-22.5 -89 -22.5 -157c0 -64.667 7.83301 -116 23.5 -154s39.167 -57 70.5 -57c28 0 50.333 17.833 67 53.5z" />
    <glyph glyph-name="Emacron" unicode="&#x112;" horiz-adv-x="462" 
d="M434 164l-17 -163.999h-385v22c19.333 1.33301 33.333 3.83301 42 7.5s14.667 10.834 18 21.501s5 27.667 5 51v464c0 23.333 -1.66699 40.333 -5 51s-9.33301 17.834 -18 21.501s-22.667 6.16699 -42 7.5v22h364l14 -155h-20c-6.66699 35.333 -14 61.666 -22 78.999
s-19.167 29.666 -33.5 36.999s-34.833 11 -61.5 11h-100v-280h116c16.667 0 28.167 5.5 34.5 16.5s10.166 32.5 11.499 64.5h20v-190h-20c-1.33301 31.333 -5.16602 52.666 -11.499 63.999s-17.833 17 -34.5 17h-116v-264c0 -15.333 3 -25.833 9 -31.5s19.333 -8.5 40 -8.5
h72c27.333 0 48.166 3.83301 62.499 11.5s25.333 20.5 33 38.5s15.834 46.667 24.501 86h20zM368 797.001v-36h-250v36h250z" />
    <glyph glyph-name="emacron" unicode="&#x113;" horiz-adv-x="385" 
d="M109 247v-14c0 -72 8.5 -125.5 25.5 -160.5s43.833 -52.5 80.5 -52.5c30 0 55.167 12.167 75.5 36.5s31.833 57.833 34.5 100.5h25c-3.33301 -52 -18.166 -92.833 -44.499 -122.5s-60.5 -44.5 -102.5 -44.5c-54.667 0 -96.334 22.667 -125.001 68
s-43 103.666 -43 174.999c0 49.333 7.33301 92.5 22 129.5s34.5 65.5 59.5 85.5s52.167 30 81.5 30c28.667 0 54.5 -9 77.5 -27s41.167 -43.667 54.5 -77s20 -72.666 20 -117.999v-9h-241zM135.5 406c-14.333 -31.333 -22.834 -76 -25.501 -134h170
c0 56 -7.16699 100.167 -21.5 132.5s-35.166 48.5 -62.499 48.5c-26 0 -46.167 -15.667 -60.5 -47zM307.999 595v-35h-221v35h221z" />
    <glyph glyph-name="Ebreve" unicode="&#x114;" horiz-adv-x="462" 
d="M434 164l-17 -163.999h-385v22c19.333 1.33301 33.333 3.83301 42 7.5s14.667 10.834 18 21.501s5 27.667 5 51v464c0 23.333 -1.66699 40.333 -5 51s-9.33301 17.834 -18 21.501s-22.667 6.16699 -42 7.5v22h364l14 -155h-20c-6.66699 35.333 -14 61.666 -22 78.999
s-19.167 29.666 -33.5 36.999s-34.833 11 -61.5 11h-100v-280h116c16.667 0 28.167 5.5 34.5 16.5s10.166 32.5 11.499 64.5h20v-190h-20c-1.33301 31.333 -5.16602 52.666 -11.499 63.999s-17.833 17 -34.5 17h-116v-264c0 -15.333 3 -25.833 9 -31.5s19.333 -8.5 40 -8.5
h72c27.333 0 48.166 3.83301 62.499 11.5s25.333 20.5 33 38.5s15.834 46.667 24.501 86h20zM306.5 813.501c17 10.333 26.833 25.167 29.5 44.5h24c-3.33301 -39.333 -15.5 -68.833 -36.5 -88.5s-47.833 -29.5 -80.5 -29.5c-33.333 0 -60.333 9.83301 -81 29.5
s-32.667 49.167 -36 88.5h24c2.66699 -20 12.5 -35 29.5 -45s38.167 -15 63.5 -15s46.5 5.16699 63.5 15.5z" />
    <glyph glyph-name="ebreve" unicode="&#x115;" horiz-adv-x="385" 
d="M109 247v-14c0 -72 8.5 -125.5 25.5 -160.5s43.833 -52.5 80.5 -52.5c30 0 55.167 12.167 75.5 36.5s31.833 57.833 34.5 100.5h25c-3.33301 -52 -18.166 -92.833 -44.499 -122.5s-60.5 -44.5 -102.5 -44.5c-54.667 0 -96.334 22.667 -125.001 68
s-43 103.666 -43 174.999c0 49.333 7.33301 92.5 22 129.5s34.5 65.5 59.5 85.5s52.167 30 81.5 30c28.667 0 54.5 -9 77.5 -27s41.167 -43.667 54.5 -77s20 -72.666 20 -117.999v-9h-241zM135.5 406c-14.333 -31.333 -22.834 -76 -25.501 -134h170
c0 56 -7.16699 100.167 -21.5 132.5s-35.166 48.5 -62.499 48.5c-26 0 -46.167 -15.667 -60.5 -47zM251.999 615c14.667 13.333 23.665 33.667 26.998 61h24c-2 -46.667 -12.167 -81.334 -30.5 -104.001s-43.166 -34 -74.499 -34s-56.166 11.333 -74.499 34
s-28.5 57.334 -30.5 104.001h24c3.33301 -28 12.333 -48.5 27 -61.5s32.667 -19.5 54 -19.5s39.333 6.66699 54 20z" />
    <glyph glyph-name="Edotaccent" unicode="&#x116;" horiz-adv-x="462" 
d="M434 164l-17 -163.999h-385v22c19.333 1.33301 33.333 3.83301 42 7.5s14.667 10.834 18 21.501s5 27.667 5 51v464c0 23.333 -1.66699 40.333 -5 51s-9.33301 17.834 -18 21.501s-22.667 6.16699 -42 7.5v22h364l14 -155h-20c-6.66699 35.333 -14 61.666 -22 78.999
s-19.167 29.666 -33.5 36.999s-34.833 11 -61.5 11h-100v-280h116c16.667 0 28.167 5.5 34.5 16.5s10.166 32.5 11.499 64.5h20v-190h-20c-1.33301 31.333 -5.16602 52.666 -11.499 63.999s-17.833 17 -34.5 17h-116v-264c0 -15.333 3 -25.833 9 -31.5s19.333 -8.5 40 -8.5
h72c27.333 0 48.166 3.83301 62.499 11.5s25.333 20.5 33 38.5s15.834 46.667 24.501 86h20zM207.5 747.001c-9 9.33301 -13.5 21.333 -13.5 36s4.5 26.667 13.5 36s20.833 14 35.5 14s26.5 -4.66699 35.5 -14s13.5 -21.333 13.5 -36s-4.5 -26.667 -13.5 -36
s-20.833 -14 -35.5 -14s-26.5 4.66699 -35.5 14z" />
    <glyph glyph-name="edotaccent" unicode="&#x117;" horiz-adv-x="385" 
d="M109 247v-14c0 -72 8.5 -125.5 25.5 -160.5s43.833 -52.5 80.5 -52.5c30 0 55.167 12.167 75.5 36.5s31.833 57.833 34.5 100.5h25c-3.33301 -52 -18.166 -92.833 -44.499 -122.5s-60.5 -44.5 -102.5 -44.5c-54.667 0 -96.334 22.667 -125.001 68
s-43 103.666 -43 174.999c0 49.333 7.33301 92.5 22 129.5s34.5 65.5 59.5 85.5s52.167 30 81.5 30c28.667 0 54.5 -9 77.5 -27s41.167 -43.667 54.5 -77s20 -72.666 20 -117.999v-9h-241zM135.5 406c-14.333 -31.333 -22.834 -76 -25.501 -134h170
c0 56 -7.16699 100.167 -21.5 132.5s-35.166 48.5 -62.499 48.5c-26 0 -46.167 -15.667 -60.5 -47zM163.499 572c-9 9.33301 -13.5 21 -13.5 35s4.5 25.667 13.5 35s20.5 14 34.5 14s25.5 -4.66699 34.5 -14s13.5 -21 13.5 -35s-4.5 -25.667 -13.5 -35s-20.5 -14 -34.5 -14
s-25.5 4.66699 -34.5 14z" />
    <glyph glyph-name="Eogonek" unicode="&#x118;" horiz-adv-x="462" 
d="M434 164l-17 -163.999h-385v22c19.333 1.33301 33.333 3.83301 42 7.5s14.667 10.834 18 21.501s5 27.667 5 51v464c0 23.333 -1.66699 40.333 -5 51s-9.33301 17.834 -18 21.501s-22.667 6.16699 -42 7.5v22h364l14 -155h-20c-6.66699 35.333 -14 61.666 -22 78.999
s-19.167 29.666 -33.5 36.999s-34.833 11 -61.5 11h-100v-280h116c16.667 0 28.167 5.5 34.5 16.5s10.166 32.5 11.499 64.5h20v-190h-20c-1.33301 31.333 -5.16602 52.666 -11.499 63.999s-17.833 17 -34.5 17h-116v-264c0 -15.333 3 -25.833 9 -31.5s19.333 -8.5 40 -8.5
h72c27.333 0 48.166 3.83301 62.499 11.5s25.333 20.5 33 38.5s15.834 46.667 24.501 86h20zM271 -157.999c-15.333 12.667 -22.999 29.3301 -22.999 49.9971c0 18.667 7.16699 36.834 21.5 54.501s36.166 35.834 65.499 54.501l20 13h23
c-51.333 -45.333 -77 -83.666 -77 -114.999c0 -14.667 3.83301 -26.167 11.5 -34.5s19.167 -12.5 34.5 -12.5c27.333 0 48.666 15 63.999 45l19 -10c-18 -42.667 -49.667 -64 -95 -64c-27.333 0 -48.666 6.33301 -63.999 19z" />
    <glyph glyph-name="eogonek" unicode="&#x119;" horiz-adv-x="385" 
d="M109 247v-14c0 -72 8.5 -125.5 25.5 -160.5s43.833 -52.5 80.5 -52.5c30 0 55.167 12.167 75.5 36.5s31.833 57.833 34.5 100.5h25c-3.33301 -52 -18.166 -92.833 -44.499 -122.5s-60.5 -44.5 -102.5 -44.5c-54.667 0 -96.334 22.667 -125.001 68
s-43 103.666 -43 174.999c0 49.333 7.33301 92.5 22 129.5s34.5 65.5 59.5 85.5s52.167 30 81.5 30c28.667 0 54.5 -9 77.5 -27s41.167 -43.667 54.5 -77s20 -72.666 20 -117.999v-9h-241zM135.5 406c-14.333 -31.333 -22.834 -76 -25.501 -134h170
c0 56 -7.16699 100.167 -21.5 132.5s-35.166 48.5 -62.499 48.5c-26 0 -46.167 -15.667 -60.5 -47zM184.499 -158.5c-14.333 13 -21.4971 29.502 -21.4971 49.502c0 18.667 6 36.167 18 52.5s31.667 35.166 59 56.499l17 13h23c-26.667 -24 -44.167 -45 -52.5 -63
s-12.5 -35.333 -12.5 -52c0 -14 3.5 -25.333 10.5 -34s16.833 -13 29.5 -13c12 0 22.167 3.66699 30.5 11s16.166 18.666 23.499 33.999l19 -10c-8.66699 -20 -19.334 -35.667 -32.001 -47s-30.334 -17 -53.001 -17c-24.667 0 -44.167 6.5 -58.5 19.5z" />
    <glyph glyph-name="Ecaron" unicode="&#x11a;" horiz-adv-x="462" 
d="M434 164l-17 -163.999h-385v22c19.333 1.33301 33.333 3.83301 42 7.5s14.667 10.834 18 21.501s5 27.667 5 51v464c0 23.333 -1.66699 40.333 -5 51s-9.33301 17.834 -18 21.501s-22.667 6.16699 -42 7.5v22h364l14 -155h-20c-6.66699 35.333 -14 61.666 -22 78.999
s-19.167 29.666 -33.5 36.999s-34.833 11 -61.5 11h-100v-280h116c16.667 0 28.167 5.5 34.5 16.5s10.166 32.5 11.499 64.5h20v-190h-20c-1.33301 31.333 -5.16602 52.666 -11.499 63.999s-17.833 17 -34.5 17h-116v-264c0 -15.333 3 -25.833 9 -31.5s19.333 -8.5 40 -8.5
h72c27.333 0 48.166 3.83301 62.499 11.5s25.333 20.5 33 38.5s15.834 46.667 24.501 86h20zM371 858.001l-107 -115h-41l-108 115h29l99 -60l99 60h29z" />
    <glyph glyph-name="ecaron" unicode="&#x11b;" horiz-adv-x="385" 
d="M109 247v-14c0 -72 8.5 -125.5 25.5 -160.5s43.833 -52.5 80.5 -52.5c30 0 55.167 12.167 75.5 36.5s31.833 57.833 34.5 100.5h25c-3.33301 -52 -18.166 -92.833 -44.499 -122.5s-60.5 -44.5 -102.5 -44.5c-54.667 0 -96.334 22.667 -125.001 68
s-43 103.666 -43 174.999c0 49.333 7.33301 92.5 22 129.5s34.5 65.5 59.5 85.5s52.167 30 81.5 30c28.667 0 54.5 -9 77.5 -27s41.167 -43.667 54.5 -77s20 -72.666 20 -117.999v-9h-241zM135.5 406c-14.333 -31.333 -22.834 -76 -25.501 -134h170
c0 56 -7.16699 100.167 -21.5 132.5s-35.166 48.5 -62.499 48.5c-26 0 -46.167 -15.667 -60.5 -47zM311.999 678l-96 -135h-36l-97 135h25l90 -75l89 75h25z" />
    <glyph glyph-name="Gcircumflex" unicode="&#x11c;" horiz-adv-x="524" 
d="M448 304c14.667 0.666992 34.002 2.32812 58.002 4.99512v-22c-18 -2 -30.667 -5 -38 -9s-12.5 -11.5 -15.5 -22.5s-4.5 -29.167 -4.5 -54.5v-149c-26.667 -18 -54.5 -32.833 -83.5 -44.5s-56.833 -17.5 -83.5 -17.5c-46 0 -87.167 13.333 -123.5 40
s-64.833 65.834 -85.5 117.501s-31 113.834 -31 186.501s10.167 134.834 30.5 186.501s47.833 90.834 82.5 117.501s73.667 40 117 40c28 0 53.167 -5.83301 75.5 -17.5s40.5 -27.167 54.5 -46.5l22 64h14v-194h-18c-22.667 112 -72 168 -148 168
c-49.333 0 -86.5 -27.667 -111.5 -83s-37.5 -133.666 -37.5 -234.999c0 -102 13.167 -180.5 39.5 -235.5s66.166 -82.5 119.499 -82.5c32.667 0 63 8 91 24v161c0 25.333 -1.83301 43.5 -5.5 54.5s-10 18.5 -19 22.5s-24.167 7 -45.5 9v22c41.333 -4 75.666 -6 102.999 -6
c14 0 28.333 0.333008 43 1zM372.002 742.994l-99 60l-99 -60h-29l108 115h41l107 -115h-29z" />
    <glyph glyph-name="gcircumflex" unicode="&#x11d;" horiz-adv-x="381" 
d="M320 63.5c30.667 -18.333 46 -49.834 46 -94.501c0 -27.333 -8.33301 -52.166 -25 -74.499s-39 -39.833 -67 -52.5s-58 -19 -90 -19c-50 0 -90.333 9.33301 -121 28s-46 46 -46 82c0 24.667 8 46 24 64s38 31.667 66 41c-20 4.66699 -35.833 12.667 -47.5 24
s-17.5 26 -17.5 44c0 23.333 9.33301 41.666 28 54.999s42.667 24.666 72 33.999c-28.667 8 -52.167 24.167 -70.5 48.5s-27.5 53.833 -27.5 88.5c0 44 13.333 79.333 40 106s59.334 40 98.001 40c20.667 0 40 -4 58 -12l121 4v-39l-86 6
c14.667 -11.333 26 -26.166 34 -44.499s12 -39.166 12 -62.499c0 -32.667 -7.83301 -60.5 -23.5 -83.5s-36.834 -39.5 -63.501 -49.5c-8 -2.66699 -25.333 -8 -52 -16c-30.667 -9.33301 -52.834 -17.333 -66.501 -24s-20.5 -15.667 -20.5 -27
c0 -10.667 4.83301 -17.667 14.5 -21s28.167 -6 55.5 -8l33 -3c50.667 -4.66699 91.334 -16.167 122.001 -34.5zM128 245.499c12 -22.333 30 -33.501 54 -33.501c24.667 0 43.167 11 55.5 33s18.5 51 18.5 87s-6.16699 65.167 -18.5 87.5s-30.833 33.5 -55.5 33.5
c-24 0 -42 -11.167 -54 -33.5s-18 -51.5 -18 -87.5c0 -35.333 6 -64.166 18 -86.499zM279 -128.502c23.333 15.667 35 38.5 35 68.5c0 29.333 -11.667 51.166 -35 65.499s-53.333 21.5 -90 21.5s-66.667 -7.16699 -90 -21.5s-35 -36.166 -35 -65.499
c0 -30 11.667 -52.833 35 -68.5s53.333 -23.5 90 -23.5s66.667 7.83301 90 23.5zM279 542.998l-89 75l-90 -75h-25l97 135h36l96 -135h-25z" />
    <glyph glyph-name="Gbreve" unicode="&#x11e;" horiz-adv-x="524" 
d="M448 304c14.667 0.666992 34.002 2.32812 58.002 4.99512v-22c-18 -2 -30.667 -5 -38 -9s-12.5 -11.5 -15.5 -22.5s-4.5 -29.167 -4.5 -54.5v-149c-26.667 -18 -54.5 -32.833 -83.5 -44.5s-56.833 -17.5 -83.5 -17.5c-46 0 -87.167 13.333 -123.5 40
s-64.833 65.834 -85.5 117.501s-31 113.834 -31 186.501s10.167 134.834 30.5 186.501s47.833 90.834 82.5 117.501s73.667 40 117 40c28 0 53.167 -5.83301 75.5 -17.5s40.5 -27.167 54.5 -46.5l22 64h14v-194h-18c-22.667 112 -72 168 -148 168
c-49.333 0 -86.5 -27.667 -111.5 -83s-37.5 -133.666 -37.5 -234.999c0 -102 13.167 -180.5 39.5 -235.5s66.166 -82.5 119.499 -82.5c32.667 0 63 8 91 24v161c0 25.333 -1.83301 43.5 -5.5 54.5s-10 18.5 -19 22.5s-24.167 7 -45.5 9v22c41.333 -4 75.666 -6 102.999 -6
c14 0 28.333 0.333008 43 1zM336.502 813.494c17 10.333 26.833 25.167 29.5 44.5h24c-3.33301 -39.333 -15.5 -68.833 -36.5 -88.5s-47.833 -29.5 -80.5 -29.5c-33.333 0 -60.333 9.83301 -81 29.5s-32.667 49.167 -36 88.5h24c2.66699 -20 12.5 -35 29.5 -45
s38.167 -15 63.5 -15s46.5 5.16699 63.5 15.5z" />
    <glyph glyph-name="gbreve" unicode="&#x11f;" horiz-adv-x="381" 
d="M320 63.5c30.667 -18.333 46 -49.834 46 -94.501c0 -27.333 -8.33301 -52.166 -25 -74.499s-39 -39.833 -67 -52.5s-58 -19 -90 -19c-50 0 -90.333 9.33301 -121 28s-46 46 -46 82c0 24.667 8 46 24 64s38 31.667 66 41c-20 4.66699 -35.833 12.667 -47.5 24
s-17.5 26 -17.5 44c0 23.333 9.33301 41.666 28 54.999s42.667 24.666 72 33.999c-28.667 8 -52.167 24.167 -70.5 48.5s-27.5 53.833 -27.5 88.5c0 44 13.333 79.333 40 106s59.334 40 98.001 40c20.667 0 40 -4 58 -12l121 4v-39l-86 6
c14.667 -11.333 26 -26.166 34 -44.499s12 -39.166 12 -62.499c0 -32.667 -7.83301 -60.5 -23.5 -83.5s-36.834 -39.5 -63.501 -49.5c-8 -2.66699 -25.333 -8 -52 -16c-30.667 -9.33301 -52.834 -17.333 -66.501 -24s-20.5 -15.667 -20.5 -27
c0 -10.667 4.83301 -17.667 14.5 -21s28.167 -6 55.5 -8l33 -3c50.667 -4.66699 91.334 -16.167 122.001 -34.5zM128 245.499c12 -22.333 30 -33.501 54 -33.501c24.667 0 43.167 11 55.5 33s18.5 51 18.5 87s-6.16699 65.167 -18.5 87.5s-30.833 33.5 -55.5 33.5
c-24 0 -42 -11.167 -54 -33.5s-18 -51.5 -18 -87.5c0 -35.333 6 -64.166 18 -86.499zM279 -128.502c23.333 15.667 35 38.5 35 68.5c0 29.333 -11.667 51.166 -35 65.499s-53.333 21.5 -90 21.5s-66.667 -7.16699 -90 -21.5s-35 -36.166 -35 -65.499
c0 -30 11.667 -52.833 35 -68.5s53.333 -23.5 90 -23.5s66.667 7.83301 90 23.5zM244 614.998c14.667 13.333 23.665 33.667 26.998 61h24c-2 -46.667 -12.167 -81.334 -30.5 -104.001s-43.166 -34 -74.499 -34s-56.166 11.333 -74.499 34s-28.5 57.334 -30.5 104.001h24
c3.33301 -28 12.333 -48.5 27 -61.5s32.667 -19.5 54 -19.5s39.333 6.66699 54 20z" />
    <glyph glyph-name="Gdotaccent" unicode="&#x120;" horiz-adv-x="524" 
d="M448 304c14.667 0.666992 34.002 2.32812 58.002 4.99512v-22c-18 -2 -30.667 -5 -38 -9s-12.5 -11.5 -15.5 -22.5s-4.5 -29.167 -4.5 -54.5v-149c-26.667 -18 -54.5 -32.833 -83.5 -44.5s-56.833 -17.5 -83.5 -17.5c-46 0 -87.167 13.333 -123.5 40
s-64.833 65.834 -85.5 117.501s-31 113.834 -31 186.501s10.167 134.834 30.5 186.501s47.833 90.834 82.5 117.501s73.667 40 117 40c28 0 53.167 -5.83301 75.5 -17.5s40.5 -27.167 54.5 -46.5l22 64h14v-194h-18c-22.667 112 -72 168 -148 168
c-49.333 0 -86.5 -27.667 -111.5 -83s-37.5 -133.666 -37.5 -234.999c0 -102 13.167 -180.5 39.5 -235.5s66.166 -82.5 119.499 -82.5c32.667 0 63 8 91 24v161c0 25.333 -1.83301 43.5 -5.5 54.5s-10 18.5 -19 22.5s-24.167 7 -45.5 9v22c41.333 -4 75.666 -6 102.999 -6
c14 0 28.333 0.333008 43 1zM237.502 746.994c-9 9.33301 -13.5 21.333 -13.5 36s4.5 26.667 13.5 36s20.833 14 35.5 14s26.5 -4.66699 35.5 -14s13.5 -21.333 13.5 -36s-4.5 -26.667 -13.5 -36s-20.833 -14 -35.5 -14s-26.5 4.66699 -35.5 14z" />
    <glyph glyph-name="gdotaccent" unicode="&#x121;" horiz-adv-x="381" 
d="M320 63.5c30.667 -18.333 46 -49.834 46 -94.501c0 -27.333 -8.33301 -52.166 -25 -74.499s-39 -39.833 -67 -52.5s-58 -19 -90 -19c-50 0 -90.333 9.33301 -121 28s-46 46 -46 82c0 24.667 8 46 24 64s38 31.667 66 41c-20 4.66699 -35.833 12.667 -47.5 24
s-17.5 26 -17.5 44c0 23.333 9.33301 41.666 28 54.999s42.667 24.666 72 33.999c-28.667 8 -52.167 24.167 -70.5 48.5s-27.5 53.833 -27.5 88.5c0 44 13.333 79.333 40 106s59.334 40 98.001 40c20.667 0 40 -4 58 -12l121 4v-39l-86 6
c14.667 -11.333 26 -26.166 34 -44.499s12 -39.166 12 -62.499c0 -32.667 -7.83301 -60.5 -23.5 -83.5s-36.834 -39.5 -63.501 -49.5c-8 -2.66699 -25.333 -8 -52 -16c-30.667 -9.33301 -52.834 -17.333 -66.501 -24s-20.5 -15.667 -20.5 -27
c0 -10.667 4.83301 -17.667 14.5 -21s28.167 -6 55.5 -8l33 -3c50.667 -4.66699 91.334 -16.167 122.001 -34.5zM128 245.499c12 -22.333 30 -33.501 54 -33.501c24.667 0 43.167 11 55.5 33s18.5 51 18.5 87s-6.16699 65.167 -18.5 87.5s-30.833 33.5 -55.5 33.5
c-24 0 -42 -11.167 -54 -33.5s-18 -51.5 -18 -87.5c0 -35.333 6 -64.166 18 -86.499zM279 -128.502c23.333 15.667 35 38.5 35 68.5c0 29.333 -11.667 51.166 -35 65.499s-53.333 21.5 -90 21.5s-66.667 -7.16699 -90 -21.5s-35 -36.166 -35 -65.499
c0 -30 11.667 -52.833 35 -68.5s53.333 -23.5 90 -23.5s66.667 7.83301 90 23.5zM155.5 571.998c-9 9.33301 -13.5 21 -13.5 35s4.5 25.667 13.5 35s20.5 14 34.5 14s25.5 -4.66699 34.5 -14s13.5 -21 13.5 -35s-4.5 -25.667 -13.5 -35s-20.5 -14 -34.5 -14
s-25.5 4.66699 -34.5 14z" />
    <glyph glyph-name="uni0122" unicode="&#x122;" horiz-adv-x="524" 
d="M448 304c14.667 0.666992 34.002 2.32812 58.002 4.99512v-22c-18 -2 -30.667 -5 -38 -9s-12.5 -11.5 -15.5 -22.5s-4.5 -29.167 -4.5 -54.5v-149c-26.667 -18 -54.5 -32.833 -83.5 -44.5s-56.833 -17.5 -83.5 -17.5c-46 0 -87.167 13.333 -123.5 40
s-64.833 65.834 -85.5 117.501s-31 113.834 -31 186.501s10.167 134.834 30.5 186.501s47.833 90.834 82.5 117.501s73.667 40 117 40c28 0 53.167 -5.83301 75.5 -17.5s40.5 -27.167 54.5 -46.5l22 64h14v-194h-18c-22.667 112 -72 168 -148 168
c-49.333 0 -86.5 -27.667 -111.5 -83s-37.5 -133.666 -37.5 -234.999c0 -102 13.167 -180.5 39.5 -235.5s66.166 -82.5 119.499 -82.5c32.667 0 63 8 91 24v161c0 25.333 -1.83301 43.5 -5.5 54.5s-10 18.5 -19 22.5s-24.167 7 -45.5 9v22c41.333 -4 75.666 -6 102.999 -6
c14 0 28.333 0.333008 43 1zM302.502 -49.0059c9 -8.66699 13.5 -22.334 13.5 -41.001c0 -20.667 -6.5 -39.167 -19.5 -55.5s-25.5 -27.166 -37.5 -32.499l-11 14c25.333 16.667 40 37 44 61c-8 -4 -15.333 -6 -22 -6c-11.333 0 -20.333 3.33301 -27 10s-10 15 -10 25
c0 10.667 3.5 19.667 10.5 27s16.167 11 27.5 11c12 0 22.5 -4.33301 31.5 -13z" />
    <glyph glyph-name="uni0123" unicode="&#x123;" horiz-adv-x="381" 
d="M320 63.5c30.667 -18.333 46 -49.834 46 -94.501c0 -27.333 -8.33301 -52.166 -25 -74.499s-39 -39.833 -67 -52.5s-58 -19 -90 -19c-50 0 -90.333 9.33301 -121 28s-46 46 -46 82c0 24.667 8 46 24 64s38 31.667 66 41c-20 4.66699 -35.833 12.667 -47.5 24
s-17.5 26 -17.5 44c0 23.333 9.33301 41.666 28 54.999s42.667 24.666 72 33.999c-28.667 8 -52.167 24.167 -70.5 48.5s-27.5 53.833 -27.5 88.5c0 44 13.333 79.333 40 106s59.334 40 98.001 40c20.667 0 40 -4 58 -12l121 4v-39l-86 6
c14.667 -11.333 26 -26.166 34 -44.499s12 -39.166 12 -62.499c0 -32.667 -7.83301 -60.5 -23.5 -83.5s-36.834 -39.5 -63.501 -49.5c-8 -2.66699 -25.333 -8 -52 -16c-30.667 -9.33301 -52.834 -17.333 -66.501 -24s-20.5 -15.667 -20.5 -27
c0 -10.667 4.83301 -17.667 14.5 -21s28.167 -6 55.5 -8l33 -3c50.667 -4.66699 91.334 -16.167 122.001 -34.5zM128 245.499c12 -22.333 30 -33.501 54 -33.501c24.667 0 43.167 11 55.5 33s18.5 51 18.5 87s-6.16699 65.167 -18.5 87.5s-30.833 33.5 -55.5 33.5
c-24 0 -42 -11.167 -54 -33.5s-18 -51.5 -18 -87.5c0 -35.333 6 -64.166 18 -86.499zM279 -128.502c23.333 15.667 35 38.5 35 68.5c0 29.333 -11.667 51.166 -35 65.499s-53.333 21.5 -90 21.5s-66.667 -7.16699 -90 -21.5s-35 -36.166 -35 -65.499
c0 -30 11.667 -52.833 35 -68.5s53.333 -23.5 90 -23.5s66.667 7.83301 90 23.5zM216.5 585.998c6.33301 -6.66699 9.50098 -15 9.50098 -25c0 -10.667 -3.5 -19.5 -10.5 -26.5s-15.833 -10.5 -26.5 -10.5c-12 0 -22.333 4.33301 -31 13s-13 22 -13 40
c0 20.667 6.33301 39 19 55s25 26.667 37 32l11 -14c-25.333 -15.333 -40 -35.333 -44 -60c8 4 15.333 6 22 6c11.333 0 20.166 -3.33301 26.499 -10z" />
    <glyph glyph-name="Hcircumflex" unicode="&#x124;" horiz-adv-x="573" 
d="M498.5 638.5c-8.33301 -4.33301 -14.166 -11.833 -17.499 -22.5s-5 -28.667 -5 -54v-456c0 -25.333 1.66699 -43.333 5 -54s9.16602 -18.167 17.499 -22.5s22.5 -7.5 42.5 -9.5v-22c-24.667 2 -44.5 3.5 -59.5 4.5s-29.5 1.5 -43.5 1.5s-28.5 -0.5 -43.5 -1.5
s-34.833 -2.5 -59.5 -4.5v22c20 2 34.167 5.16699 42.5 9.5s14.166 11.833 17.499 22.5s5 28.667 5 54v225h-227v-225c0 -25.333 1.66699 -43.333 5 -54s9.16602 -18.167 17.499 -22.5s22.5 -7.5 42.5 -9.5v-22c-24.667 2 -44.5 3.5 -59.5 4.5s-29.5 1.5 -43.5 1.5
s-28.5 -0.5 -43.5 -1.5s-34.833 -2.5 -59.5 -4.5v22c20 2 34.167 5.16699 42.5 9.5s14.166 11.833 17.499 22.5s5 28.667 5 54v456c0 25.333 -1.66699 43.333 -5 54s-9.16602 18.167 -17.499 22.5s-22.5 7.5 -42.5 9.5v22c24.667 -2 44.5 -3.5 59.5 -4.5
s29.5 -1.5 43.5 -1.5s28.5 0.5 43.5 1.5s34.833 2.5 59.5 4.5v-22c-20 -2 -34.167 -5.16699 -42.5 -9.5s-14.166 -11.833 -17.499 -22.5s-5 -28.667 -5 -54v-203h227v203c0 25.333 -1.66699 43.333 -5 54s-9.16602 18.167 -17.499 22.5s-22.5 7.5 -42.5 9.5v22
c24.667 -2 44.5 -3.5 59.5 -4.5s29.5 -1.5 43.5 -1.5s28.5 0.5 43.5 1.5s34.833 2.5 59.5 4.5v-22c-20 -2 -34.167 -5.16699 -42.5 -9.5zM386 743l-99 60l-99 -60h-29l108 115h41l107 -115h-29z" />
    <glyph glyph-name="hcircumflex" unicode="&#x125;" horiz-adv-x="444" 
d="M376 49c2.66699 -10 7.50195 -16.833 14.502 -20.5s18.833 -6.5 35.5 -8.5v-22c-32.667 4 -62.334 6 -89.001 6c-24.667 0 -53 -2 -85 -6v22c15.333 2 26.333 4.83301 33 8.5s11.167 10.334 13.5 20.001s3.5 25.5 3.5 47.5v265c0 30.667 -5.16699 52.667 -15.5 66
s-25.5 20 -45.5 20c-26.667 0 -49.167 -12 -67.5 -36s-27.5 -54.333 -27.5 -91v-224c0 -22 1.16699 -37.833 3.5 -47.5s6.83301 -16.334 13.5 -20.001s17.667 -6.5 33 -8.5v-22c-32 4 -60.333 6 -85 6c-26 0 -55.667 -2 -89 -6v22c16.667 2 28.5 4.83301 35.5 8.5
s11.833 10.5 14.5 20.5s4 25.667 4 47v478c0 20.667 -1.33301 36 -4 46s-8 17 -16 21s-20.667 6.66699 -38 8v21c49.333 1.33301 87.333 4 114 8h14v-265c12 20 27.333 35.833 46 47.5s39.667 17.5 63 17.5c37.333 0 66.166 -12.667 86.499 -38s30.5 -60.333 30.5 -105v-239
c0 -21.333 1.33301 -37 4 -47zM313.002 743l-99 60l-99 -60h-29l108 115h41l107 -115h-29z" />
    <glyph glyph-name="Hbar" unicode="&#x126;" horiz-adv-x="577" 
d="M478 478v-372c0 -25.333 1.66699 -43.333 5 -54s9.16602 -18.167 17.499 -22.5s22.5 -7.5 42.5 -9.5v-22c-24.667 2 -44.5 3.5 -59.5 4.5s-29.5 1.5 -43.5 1.5s-28.5 -0.5 -43.5 -1.5s-34.833 -2.5 -59.5 -4.5v22c20 2 34.167 5.16699 42.5 9.5
s14.166 11.833 17.499 22.5s5 28.667 5 54v225h-227v-225c0 -25.333 1.66699 -43.333 5 -54s9.16602 -18.167 17.499 -22.5s22.5 -7.5 42.5 -9.5v-22c-24.667 2 -44.5 3.5 -59.5 4.5s-29.5 1.5 -43.5 1.5s-28.5 -0.5 -43.5 -1.5s-34.833 -2.5 -59.5 -4.5v22
c20 2 34.167 5.16699 42.5 9.5s14.166 11.833 17.499 22.5s5 28.667 5 54v372h-73v28h73v56c0 25.333 -1.66699 43.333 -5 54s-9.16602 18.167 -17.499 22.5s-22.5 7.5 -42.5 9.5v22c24.667 -2 44.5 -3.5 59.5 -4.5s29.5 -1.5 43.5 -1.5s28.5 0.5 43.5 1.5
s34.833 2.5 59.5 4.5v-22c-20 -2 -34.167 -5.16699 -42.5 -9.5s-14.166 -11.833 -17.499 -22.5s-5 -28.667 -5 -54v-56h227v56c0 25.333 -1.66699 43.333 -5 54s-9.16602 18.167 -17.499 22.5s-22.5 7.5 -42.5 9.5v22c24.667 -2 44.5 -3.5 59.5 -4.5s29.5 -1.5 43.5 -1.5
s28.5 0.5 43.5 1.5s34.833 2.5 59.5 4.5v-22c-20 -2 -34.167 -5.16699 -42.5 -9.5s-14.166 -11.833 -17.499 -22.5s-5 -28.667 -5 -54v-56h73v-28h-73zM402 478h-227v-119h227v119z" />
    <glyph glyph-name="hbar" unicode="&#x127;" horiz-adv-x="444" 
d="M376 49c2.66699 -10 7.50195 -16.833 14.502 -20.5s18.833 -6.5 35.5 -8.5v-22c-32.667 4 -62.334 6 -89.001 6c-24.667 0 -53 -2 -85 -6v22c15.333 2 26.333 4.83301 33 8.5s11.167 10.334 13.5 20.001s3.5 25.5 3.5 47.5v255c0 30.667 -5.16699 52.667 -15.5 66
s-25.5 20 -45.5 20c-26.667 0 -49.167 -12 -67.5 -36s-27.5 -54.333 -27.5 -91v-214c0 -22 1.16699 -37.833 3.5 -47.5s6.83301 -16.334 13.5 -20.001s17.667 -6.5 33 -8.5v-22c-32 4 -60.333 6 -85 6c-26 0 -55.667 -2 -89 -6v22c16.667 2 28.5 4.83301 35.5 8.5
s11.833 10.5 14.5 20.5s4 25.667 4 47v440h-71v26h71v12c0 20.667 -1.33301 36 -4 46s-8 17 -16 21s-20.667 6.66699 -38 8v21c49.333 1.33301 87.333 4 114 8h14v-116h139v-26h-139v-133c12 20 27.333 35.833 46 47.5s39.667 17.5 63 17.5
c37.333 0 66.166 -12.667 86.499 -38s30.5 -60.333 30.5 -105v-229c0 -21.333 1.33301 -37 4 -47z" />
    <glyph glyph-name="Itilde" unicode="&#x128;" horiz-adv-x="270" 
d="M150 748.5c-9.33301 5 -19.999 12.5 -31.999 22.5c-17.333 14.667 -31 22 -41 22s-18 -3.5 -24 -10.5s-10.667 -19.167 -14 -36.5h-21c4 67.333 27.333 101 70 101c11.333 0 21.833 -2.5 31.5 -7.5s19.5 -12.167 29.5 -21.5c9.33301 -8.66699 17.166 -14.667 23.499 -18
s13.166 -5 20.499 -5c9.33301 0 17 3.5 23 10.5s10.667 19.167 14 36.5h21c-2 -38.667 -9.66699 -65.167 -23 -79.5s-28.666 -21.5 -45.999 -21.5c-12 0 -22.667 2.5 -32 7.5zM92.001 616c-3.33301 10.667 -9.16602 18.167 -17.499 22.5s-22.5 7.5 -42.5 9.5v22
c24.667 -2 44.5 -3.5 59.5 -4.5s29.5 -1.5 43.5 -1.5s28.5 0.5 43.5 1.5s34.833 2.5 59.5 4.5v-22c-20 -2 -34.167 -5.16699 -42.5 -9.5s-14.166 -11.833 -17.499 -22.5s-5 -28.667 -5 -54v-456c0 -25.333 1.66699 -43.333 5 -54s9.16602 -18.167 17.499 -22.5
s22.5 -7.5 42.5 -9.5v-22c-24.667 2 -44.5 3.5 -59.5 4.5s-29.5 1.5 -43.5 1.5s-28.5 -0.5 -43.5 -1.5s-34.833 -2.5 -59.5 -4.5v22c20 2 34.167 5.16699 42.5 9.5s14.166 11.833 17.499 22.5s5 28.667 5 54v456c0 25.333 -1.66699 43.333 -5 54z" />
    <glyph glyph-name="itilde" unicode="&#x129;" horiz-adv-x="229" 
d="M197 642l21 0.000976562c-1.33301 -67.333 -21.333 -101 -60 -101c-11.333 0 -21.5 2.66699 -30.5 8s-19.5 13.333 -31.5 24c-8.66699 7.33301 -15.5 12.666 -20.5 15.999s-10.167 5 -15.5 5c-17.333 0 -27.666 -16 -30.999 -48h-21c1.33301 67.333 21.333 101 60 101
c10.667 0 20.167 -2.5 28.5 -7.5s18.833 -12.5 31.5 -22.5c2.66699 -2 6.66699 -5.33301 12 -10s10 -8 14 -10s8 -3 12 -3c17.333 0 27.666 16 30.999 48zM78 416.001c-2.66699 10 -7.99902 17 -15.999 21s-20.667 6.66699 -38 8v21c49.333 1.33301 87.333 4 114 8h14v-378
c0 -21.333 1.33301 -37 4 -47s7.5 -16.833 14.5 -20.5s18.833 -6.5 35.5 -8.5v-22c-32.667 4 -62.334 6 -89.001 6c-26 0 -55.667 -2 -89 -6v22c16.667 2 28.5 4.83301 35.5 8.5s11.833 10.5 14.5 20.5s4 25.667 4 47v274c0 20.667 -1.33301 36 -4 46z" />
    <glyph glyph-name="Imacron" unicode="&#x12a;" horiz-adv-x="270" 
d="M240 797v-36h-211v36h211zM92 616c-3.33301 10.667 -9.16602 18.167 -17.499 22.5s-22.5 7.5 -42.5 9.5v22c24.667 -2 44.5 -3.5 59.5 -4.5s29.5 -1.5 43.5 -1.5s28.5 0.5 43.5 1.5s34.833 2.5 59.5 4.5v-22c-20 -2 -34.167 -5.16699 -42.5 -9.5
s-14.166 -11.833 -17.499 -22.5s-5 -28.667 -5 -54v-456c0 -25.333 1.66699 -43.333 5 -54s9.16602 -18.167 17.499 -22.5s22.5 -7.5 42.5 -9.5v-22c-24.667 2 -44.5 3.5 -59.5 4.5s-29.5 1.5 -43.5 1.5s-28.5 -0.5 -43.5 -1.5s-34.833 -2.5 -59.5 -4.5v22
c20 2 34.167 5.16699 42.5 9.5s14.166 11.833 17.499 22.5s5 28.667 5 54v456c0 25.333 -1.66699 43.333 -5 54z" />
    <glyph glyph-name="imacron" unicode="&#x12b;" horiz-adv-x="229" 
d="M213 595v-35h-201v35h201zM78 416c-2.66699 10 -7.99902 17 -15.999 21s-20.667 6.66699 -38 8v21c49.333 1.33301 87.333 4 114 8h14v-378c0 -21.333 1.33301 -37 4 -47s7.5 -16.833 14.5 -20.5s18.833 -6.5 35.5 -8.5v-22c-32.667 4 -62.334 6 -89.001 6
c-26 0 -55.667 -2 -89 -6v22c16.667 2 28.5 4.83301 35.5 8.5s11.833 10.5 14.5 20.5s4 25.667 4 47v274c0 20.667 -1.33301 36 -4 46z" />
    <glyph glyph-name="Ibreve" unicode="&#x12c;" horiz-adv-x="270" 
d="M189.5 814c15.667 10.667 24.8291 25.332 27.4961 43.999h24c-3.33301 -39.333 -14.666 -68.833 -33.999 -88.5s-43.333 -29.5 -72 -29.5c-29.333 0 -53.5 9.83301 -72.5 29.5s-30.167 49.167 -33.5 88.5h24c2.66699 -19.333 11.834 -34.166 27.501 -44.499
s33.834 -15.5 54.501 -15.5s38.834 5.33301 54.501 16zM91.9951 615.998c-3.33301 10.667 -9.16602 18.167 -17.499 22.5s-22.5 7.5 -42.5 9.5v22c24.667 -2 44.5 -3.5 59.5 -4.5s29.5 -1.5 43.5 -1.5s28.5 0.5 43.5 1.5s34.833 2.5 59.5 4.5v-22
c-20 -2 -34.167 -5.16699 -42.5 -9.5s-14.166 -11.833 -17.499 -22.5s-5 -28.667 -5 -54v-456c0 -25.333 1.66699 -43.333 5 -54s9.16602 -18.167 17.499 -22.5s22.5 -7.5 42.5 -9.5v-22c-24.667 2 -44.5 3.5 -59.5 4.5s-29.5 1.5 -43.5 1.5s-28.5 -0.5 -43.5 -1.5
s-34.833 -2.5 -59.5 -4.5v22c20 2 34.167 5.16699 42.5 9.5s14.166 11.833 17.499 22.5s5 28.667 5 54v456c0 25.333 -1.66699 43.333 -5 54z" />
    <glyph glyph-name="ibreve" unicode="&#x12d;" horiz-adv-x="229" 
d="M164 614.5c13.333 13 21.667 33.5 25 61.5h24c-4 -92 -37.333 -138 -100 -138s-96 46 -100 138h24c6.66699 -54 32 -81 76 -81c20.667 0 37.667 6.5 51 19.5zM78.001 416c-2.66699 10 -7.99902 17 -15.999 21s-20.667 6.66699 -38 8v21c49.333 1.33301 87.333 4 114 8h14
v-378c0 -21.333 1.33301 -37 4 -47s7.5 -16.833 14.5 -20.5s18.833 -6.5 35.5 -8.5v-22c-32.667 4 -62.334 6 -89.001 6c-26 0 -55.667 -2 -89 -6v22c16.667 2 28.5 4.83301 35.5 8.5s11.833 10.5 14.5 20.5s4 25.667 4 47v274c0 20.667 -1.33301 36 -4 46z" />
    <glyph glyph-name="Iogonek" unicode="&#x12e;" horiz-adv-x="270" 
d="M92 616c-3.33301 10.667 -9.16602 18.167 -17.499 22.5s-22.5 7.5 -42.5 9.5v22c24.667 -2 44.5 -3.5 59.5 -4.5s29.5 -1.5 43.5 -1.5s28.5 0.5 43.5 1.5s34.833 2.5 59.5 4.5v-22c-20 -2 -34.167 -5.16699 -42.5 -9.5s-14.166 -11.833 -17.499 -22.5s-5 -28.667 -5 -54
v-456c0 -25.333 1.66699 -43.333 5 -54s9.16602 -18.167 17.499 -22.5s22.5 -7.5 42.5 -9.5v-22c-24.667 2 -44.5 3.5 -59.5 4.5s-29.5 1.5 -43.5 1.5s-28.5 -0.5 -43.5 -1.5s-34.833 -2.5 -59.5 -4.5v22c20 2 34.167 5.16699 42.5 9.5s14.166 11.833 17.499 22.5
s5 28.667 5 54v456c0 25.333 -1.66699 43.333 -5 54zM70 -158c-15.333 12.667 -22.999 29.3301 -22.999 49.9971c0 18.667 7.16699 36.834 21.5 54.501s36.166 35.834 65.499 54.501l20 13h23c-51.333 -45.333 -77 -83.666 -77 -114.999
c0 -14.667 3.83301 -26.167 11.5 -34.5s19.167 -12.5 34.5 -12.5c27.333 0 48.666 15 63.999 45l19 -10c-18 -42.667 -49.667 -64 -95 -64c-27.333 0 -48.666 6.33301 -63.999 19z" />
    <glyph glyph-name="iogonek" unicode="&#x12f;" horiz-adv-x="229" 
d="M78 416c-2.66699 10 -7.99902 17 -15.999 21s-20.667 6.66699 -38 8v21c49.333 1.33301 87.333 4 114 8h14v-378c0 -21.333 1.33301 -37 4 -47s7.5 -16.833 14.5 -20.5s18.833 -6.5 35.5 -8.5v-22c-32.667 4 -62.334 6 -89.001 6c-26 0 -55.667 -2 -89 -6v22
c16.667 2 28.5 4.83301 35.5 8.5s11.833 10.5 14.5 20.5s4 25.667 4 47v274c0 20.667 -1.33301 36 -4 46zM78.501 572c-9 9.33301 -13.5 21 -13.5 35s4.5 25.667 13.5 35s20.5 14 34.5 14s25.5 -4.66699 34.5 -14s13.5 -21 13.5 -35s-4.5 -25.667 -13.5 -35
s-20.5 -14 -34.5 -14s-25.5 4.66699 -34.5 14zM60.501 -158.5c-14.333 13 -21.4971 29.502 -21.4971 49.502c0 18.667 6 36.167 18 52.5s31.667 35.166 59 56.499l17 13h23c-26.667 -24 -44.167 -45 -52.5 -63s-12.5 -35.333 -12.5 -52c0 -14 3.5 -25.333 10.5 -34
s16.833 -13 29.5 -13c12 0 22.167 3.66699 30.5 11s16.166 18.666 23.499 33.999l19 -10c-8.66699 -20 -19.334 -35.667 -32.001 -47s-30.334 -17 -53.001 -17c-24.667 0 -44.167 6.5 -58.5 19.5z" />
    <glyph glyph-name="Idotaccent" unicode="&#x130;" horiz-adv-x="270" 
d="M92 616c-3.33301 10.667 -9.16602 18.167 -17.499 22.5s-22.5 7.5 -42.5 9.5v22c24.667 -2 44.5 -3.5 59.5 -4.5s29.5 -1.5 43.5 -1.5s28.5 0.5 43.5 1.5s34.833 2.5 59.5 4.5v-22c-20 -2 -34.167 -5.16699 -42.5 -9.5s-14.166 -11.833 -17.499 -22.5s-5 -28.667 -5 -54
v-456c0 -25.333 1.66699 -43.333 5 -54s9.16602 -18.167 17.499 -22.5s22.5 -7.5 42.5 -9.5v-22c-24.667 2 -44.5 3.5 -59.5 4.5s-29.5 1.5 -43.5 1.5s-28.5 -0.5 -43.5 -1.5s-34.833 -2.5 -59.5 -4.5v22c20 2 34.167 5.16699 42.5 9.5s14.166 11.833 17.499 22.5
s5 28.667 5 54v456c0 25.333 -1.66699 43.333 -5 54zM99.5 747c-9 9.33301 -13.5 21.333 -13.5 36s4.5 26.667 13.5 36s20.833 14 35.5 14s26.5 -4.66699 35.5 -14s13.5 -21.333 13.5 -36s-4.5 -26.667 -13.5 -36s-20.833 -14 -35.5 -14s-26.5 4.66699 -35.5 14z" />
    <glyph glyph-name="dotlessi" unicode="&#x131;" horiz-adv-x="229" 
d="M78 416c-2.66699 10 -7.99902 17 -15.999 21s-20.667 6.66699 -38 8v21c49.333 1.33301 87.333 4 114 8h14v-378c0 -21.333 1.33301 -37 4 -47s7.5 -16.833 14.5 -20.5s18.833 -6.5 35.5 -8.5v-22c-32.667 4 -62.334 6 -89.001 6c-26 0 -55.667 -2 -89 -6v22
c16.667 2 28.5 4.83301 35.5 8.5s11.833 10.5 14.5 20.5s4 25.667 4 47v274c0 20.667 -1.33301 36 -4 46z" />
    <glyph glyph-name="Jcircumflex" unicode="&#x134;" horiz-adv-x="260" 
d="M45 743h-29l94 115h41l93 -115h-29l-85 60zM86.5 665.5c15 -1 29.499 -1.5 43.499 -1.5s28.5 0.5 43.5 1.5s34.833 2.5 59.5 4.5v-22c-20 -2 -34.167 -5.16699 -42.5 -9.5s-14.166 -11.833 -17.499 -22.5s-5 -28.667 -5 -54v-435c0 -151.333 -62.333 -237.333 -187 -258
v23c31.333 5.33301 57.666 21 78.999 47s32 63.333 32 112v511c0 25.333 -1.66699 43.333 -5 54s-9.16602 18.167 -17.499 22.5s-22.5 7.5 -42.5 9.5v22c24.667 -2 44.5 -3.5 59.5 -4.5z" />
    <glyph glyph-name="jcircumflex" unicode="&#x135;" horiz-adv-x="214" 
d="M218 543h-25l-79 74l-80 -74h-25l87 135h36zM138 474h14v-467c0 -66.667 -17 -114 -51 -142s-72.667 -42 -116 -42v22c28.667 0 52 11 70 33s27 53.667 27 95v397c0 20.667 -1.33301 36 -4 46s-8 17 -16 21s-20.667 6.66699 -38 8v21c49.333 1.33301 87.333 4 114 8z" />
    <glyph glyph-name="uni0136" unicode="&#x136;" horiz-adv-x="529" 
d="M483 36c10 -8 25.335 -13.334 46.002 -16.001v-22c-33.333 4 -65.333 6 -96 6c-38.667 0 -76 -2 -112 -6v22c20 2.66699 33.833 5.33398 41.5 8.00098s11.5 8 11.5 16c0 9.33301 -6 24.333 -18 45l-148 252h-35v-235c0 -25.333 1.66699 -43.333 5 -54
s9.16602 -18.167 17.499 -22.5s22.5 -7.5 42.5 -9.5v-22c-24.667 2 -44.5 3.5 -59.5 4.5s-29.5 1.5 -43.5 1.5s-28.5 -0.5 -43.5 -1.5s-34.833 -2.5 -59.5 -4.5v22c20 2 34.167 5.16699 42.5 9.5s14.166 11.833 17.499 22.5s5 28.667 5 54v456
c0 25.333 -1.66699 43.333 -5 54s-9.16602 18.167 -17.499 22.5s-22.5 7.5 -42.5 9.5v22c24.667 -2 44.5 -3.5 59.5 -4.5s29.5 -1.5 43.5 -1.5s28.5 0.5 43.5 1.5s34.833 2.5 59.5 4.5v-22c-20 -2 -34.167 -5.16699 -42.5 -9.5s-14.166 -11.833 -17.499 -22.5
s-5 -28.667 -5 -54v-193h35l151 216c11.333 16.667 17 29 17 37c0 8.66699 -4.83301 14.834 -14.5 18.501s-24.834 6.16699 -45.501 7.5v22c38 -4 69.667 -6 95 -6c24 0 53.333 2 88 6v-22c-20.667 -2.66699 -35.834 -5.33398 -45.501 -8.00098s-19 -8 -28 -16
s-19.833 -21 -32.5 -39l-132 -189l187 -315c13.333 -22 25 -37 35 -45zM300.502 -49.001c9 -8.66699 13.5 -22.334 13.5 -41.001c0 -20.667 -6.5 -39.167 -19.5 -55.5s-25.5 -27.166 -37.5 -32.499l-11 14c25.333 16.667 40 37 44 61c-8 -4 -15.333 -6 -22 -6
c-11.333 0 -20.333 3.33301 -27 10s-10 15 -10 25c0 10.667 3.5 19.667 10.5 27s16.167 11 27.5 11c12 0 22.5 -4.33301 31.5 -13z" />
    <glyph glyph-name="uni0137" unicode="&#x137;" horiz-adv-x="435" 
d="M388 36c6 -5.33301 12.168 -9 18.501 -11s16.833 -3.66699 31.5 -5v-22c-30.667 4 -60 6 -88 6c-32.667 0 -62.667 -2 -90 -6v22c14 1.33301 23.833 3 29.5 5s8.5 5.66699 8.5 11c0 6.66699 -4.33301 17.334 -13 32.001l-106 179h-33v-151c0 -21.333 1.33301 -37 4 -47
s7.5 -16.833 14.5 -20.5s18.833 -6.5 35.5 -8.5v-22c-32.667 4 -62.334 6 -89.001 6c-26 0 -55.667 -2 -89 -6v22c16.667 2 28.5 4.83301 35.5 8.5s11.833 10.5 14.5 20.5s4 25.667 4 47v478c0 20.667 -1.33301 36 -4 46s-8 17 -16 21s-20.667 6.66699 -38 8v21
c49.333 1.33301 87.333 4 114 8h14v-406h34l114 132c8.66699 10.667 13 19 13 25s-3.83301 10.333 -11.5 13s-19.5 5 -35.5 7v22c28.667 -4 53 -6 73 -6s44.667 2 74 6v-22c-19.333 -2 -34 -5.83301 -44 -11.5s-22.333 -16.834 -37 -33.501l-97 -114l139 -227
c7.33301 -12.667 14 -21.667 20 -27zM257.001 -50c8.66699 -8.66699 12.999 -22 12.999 -40c0 -20.667 -6.33301 -39 -19 -55s-25 -26.667 -37 -32l-11 14c25.333 15.333 40 35.333 44 60c-8 -4 -15.333 -6 -22 -6c-11.333 0 -20.166 3.33301 -26.499 10s-9.5 15 -9.5 25
c0 10.667 3.5 19.5 10.5 26.5s15.833 10.5 26.5 10.5c12 0 22.333 -4.33301 31 -13z" />
    <glyph glyph-name="Lacute" unicode="&#x139;" horiz-adv-x="445" 
d="M32 0l-0.00195312 21.999c19.333 1.33301 33.333 3.83301 42 7.5s14.667 10.834 18 21.501s5 27.667 5 51v460c0 25.333 -1.66699 43.333 -5 54s-9.16602 18.167 -17.499 22.5s-22.5 7.5 -42.5 9.5v22c24.667 -2 44.5 -3.5 59.5 -4.5s29.5 -1.5 43.5 -1.5
c24.667 0 61 2 109 6v-22c-22 -2 -37.667 -5 -47 -9s-15.666 -11.5 -18.999 -22.5s-5 -29.167 -5 -54.5v-494c0 -15.333 3 -25.833 9 -31.5s19.333 -8.5 40 -8.5h60c24 0 43.833 4.5 59.5 13.5s29 24.5 40 46.5s20.833 53 29.5 93h20l-26 -181h-373zM171.998 841.999
c8 10 14.8311 16.832 20.498 20.499s12.834 5.5 21.501 5.5s16.334 -3.33301 23.001 -10s10 -15 10 -25c0 -6.66699 -2 -13.167 -6 -19.5s-12.333 -13.166 -25 -20.499l-105 -59h-29z" />
    <glyph glyph-name="lacute" unicode="&#x13a;" horiz-adv-x="224" 
d="M73 620c-2.66699 10 -7.99902 17 -15.999 21s-20.667 6.66699 -38 8v21c49.333 1.33301 87.333 4 114 8h14v-582c0 -21.333 1.33301 -37 4 -47s7.5 -16.833 14.5 -20.5s18.833 -6.5 35.5 -8.5v-22c-32.667 4 -62.334 6 -89.001 6c-26 0 -55.667 -2 -89 -6v22
c16.667 2 28.5 4.83301 35.5 8.5s11.833 10.5 14.5 20.5s4 25.667 4 47v478c0 20.667 -1.33301 36 -4 46zM151.001 842c8 10 14.8311 16.832 20.498 20.499s12.834 5.5 21.501 5.5s16.334 -3.33301 23.001 -10s10 -15 10 -25c0 -6.66699 -2 -13.167 -6 -19.5
s-12.333 -13.166 -25 -20.499l-105 -59h-29z" />
    <glyph glyph-name="uni013B" unicode="&#x13b;" horiz-adv-x="445" 
d="M32 0l-0.00195312 21.999c19.333 1.33301 33.333 3.83301 42 7.5s14.667 10.834 18 21.501s5 27.667 5 51v460c0 25.333 -1.66699 43.333 -5 54s-9.16602 18.167 -17.499 22.5s-22.5 7.5 -42.5 9.5v22c24.667 -2 44.5 -3.5 59.5 -4.5s29.5 -1.5 43.5 -1.5
c24.667 0 61 2 109 6v-22c-22 -2 -37.667 -5 -47 -9s-15.666 -11.5 -18.999 -22.5s-5 -29.167 -5 -54.5v-494c0 -15.333 3 -25.833 9 -31.5s19.333 -8.5 40 -8.5h60c24 0 43.833 4.5 59.5 13.5s29 24.5 40 46.5s20.833 53 29.5 93h20l-26 -181h-373zM273.498 -49.001
c9 -8.66699 13.5 -22.334 13.5 -41.001c0 -20.667 -6.5 -39.167 -19.5 -55.5s-25.5 -27.166 -37.5 -32.499l-11 14c25.333 16.667 40 37 44 61c-8 -4 -15.333 -6 -22 -6c-11.333 0 -20.333 3.33301 -27 10s-10 15 -10 25c0 10.667 3.5 19.667 10.5 27s16.167 11 27.5 11
c12 0 22.5 -4.33301 31.5 -13z" />
    <glyph glyph-name="uni013C" unicode="&#x13c;" horiz-adv-x="224" 
d="M73 620c-2.66699 10 -7.99902 17 -15.999 21s-20.667 6.66699 -38 8v21c49.333 1.33301 87.333 4 114 8h14v-582c0 -21.333 1.33301 -37 4 -47s7.5 -16.833 14.5 -20.5s18.833 -6.5 35.5 -8.5v-22c-32.667 4 -62.334 6 -89.001 6c-26 0 -55.667 -2 -89 -6v22
c16.667 2 28.5 4.83301 35.5 8.5s11.833 10.5 14.5 20.5s4 25.667 4 47v478c0 20.667 -1.33301 36 -4 46zM139.001 -50c8.66699 -8.66699 12.999 -22 12.999 -40c0 -20.667 -6.33301 -39 -19 -55s-25 -26.667 -37 -32l-11 14c25.333 15.333 40 35.333 44 60
c-8 -4 -15.333 -6 -22 -6c-11.333 0 -20.166 3.33301 -26.499 10s-9.5 15 -9.5 25c0 10.667 3.5 19.5 10.5 26.5s15.833 10.5 26.5 10.5c12 0 22.333 -4.33301 31 -13z" />
    <glyph glyph-name="Lcaron" unicode="&#x13d;" horiz-adv-x="448" 
d="M381 675.5c6.66699 -6.33301 10 -15.167 10 -26.5c0 -8 -2 -17.667 -6 -29l-53 -132h-17l8 154c0.666992 13.333 4.16699 23.833 10.5 31.5s14.833 11.5 25.5 11.5c8 0 15.333 -3.16699 22 -9.5zM32 -0.000976562l-0.00195312 21.999
c19.333 1.33301 33.333 3.83301 42 7.5s14.667 10.834 18 21.501s5 27.667 5 51v460c0 25.333 -1.66699 43.333 -5 54s-9.16602 18.167 -17.499 22.5s-22.5 7.5 -42.5 9.5v22c24.667 -2 44.5 -3.5 59.5 -4.5s29.5 -1.5 43.5 -1.5c24.667 0 61 2 109 6v-22
c-22 -2 -37.667 -5 -47 -9s-15.666 -11.5 -18.999 -22.5s-5 -29.167 -5 -54.5v-494c0 -15.333 3 -25.833 9 -31.5s19.333 -8.5 40 -8.5h60c24 0 43.833 4.5 59.5 13.5s29 24.5 40 46.5s20.833 53 29.5 93h20l-26 -181h-373z" />
    <glyph glyph-name="lcaron" unicode="&#x13e;" horiz-adv-x="223" 
d="M284 675.5c6.66699 -6.33301 10 -15.167 10 -26.5c0 -8 -2 -17.667 -6 -29l-53 -132h-17l8 154c0.666992 13.333 4.16699 23.833 10.5 31.5s14.833 11.5 25.5 11.5c8 0 15.333 -3.16699 22 -9.5zM73 619.999c-2.66699 10 -7.99902 17 -15.999 21s-20.667 6.66699 -38 8
v21c49.333 1.33301 87.333 4 114 8h14v-582c0 -21.333 1.33301 -37 4 -47s7.5 -16.833 14.5 -20.5s18.833 -6.5 35.5 -8.5v-22c-32.667 4 -62.334 6 -89.001 6c-26 0 -55.667 -2 -89 -6v22c16.667 2 28.5 4.83301 35.5 8.5s11.833 10.5 14.5 20.5s4 25.667 4 47v478
c0 20.667 -1.33301 36 -4 46z" />
    <glyph glyph-name="Ldot" unicode="&#x13f;" horiz-adv-x="448" 
d="M32 0l-0.00195312 21.999c19.333 1.33301 33.333 3.83301 42 7.5s14.667 10.834 18 21.501s5 27.667 5 51v460c0 25.333 -1.66699 43.333 -5 54s-9.16602 18.167 -17.499 22.5s-22.5 7.5 -42.5 9.5v22c24.667 -2 44.5 -3.5 59.5 -4.5s29.5 -1.5 43.5 -1.5
c24.667 0 61 2 109 6v-22c-22 -2 -37.667 -5 -47 -9s-15.666 -11.5 -18.999 -22.5s-5 -29.167 -5 -54.5v-494c0 -15.333 3 -25.833 9 -31.5s19.333 -8.5 40 -8.5h60c24 0 43.833 4.5 59.5 13.5s29 24.5 40 46.5s20.833 53 29.5 93h20l-26 -181h-373zM320.998 321.499
c-9.33301 9.66699 -14 21.834 -14 36.501s4.66699 26.834 14 36.501s21.333 14.5 36 14.5s26.667 -4.83301 36 -14.5s14 -21.834 14 -36.501s-4.66699 -26.834 -14 -36.501s-21.333 -14.5 -36 -14.5s-26.667 4.83301 -36 14.5z" />
    <glyph glyph-name="ldot" unicode="&#x140;" horiz-adv-x="297" 
d="M73 620c-2.66699 10 -7.99902 17 -15.999 21s-20.667 6.66699 -38 8v21c49.333 1.33301 87.333 4 114 8h14v-582c0 -21.333 1.33301 -37 4 -47s7.5 -16.833 14.5 -20.5s18.833 -6.5 35.5 -8.5v-22c-32.667 4 -62.334 6 -89.001 6c-26 0 -55.667 -2 -89 -6v22
c16.667 2 28.5 4.83301 35.5 8.5s11.833 10.5 14.5 20.5s4 25.667 4 47v478c0 20.667 -1.33301 36 -4 46zM225.001 321.5c-9.33301 9.66699 -14 21.834 -14 36.501s4.66699 26.834 14 36.501s21.333 14.5 36 14.5s26.667 -4.83301 36 -14.5s14 -21.834 14 -36.501
s-4.66699 -26.834 -14 -36.501s-21.333 -14.5 -36 -14.5s-26.667 4.83301 -36 14.5z" />
    <glyph glyph-name="Lslash" unicode="&#x141;" horiz-adv-x="454" 
d="M440 181l-26.002 -181.001h-373v22c19.333 1.33301 33.333 3.83301 42 7.5s14.667 10.834 18 21.501s5 27.667 5 51v182l-68 -34v31l68 34v247c0 25.333 -1.66699 43.333 -5 54s-9.16602 18.167 -17.499 22.5s-22.5 7.5 -42.5 9.5v22c24.667 -2 44.5 -3.5 59.5 -4.5
s29.5 -1.5 43.5 -1.5c24.667 0 61 2 109 6v-22c-22 -2 -37.667 -5 -47 -9s-15.666 -11.5 -18.999 -22.5s-5 -29.167 -5 -54.5v-214l121 63v-31l-121 -63v-249c0 -15.333 3 -25.833 9 -31.5s19.333 -8.5 40 -8.5h60c24 0 43.833 4.5 59.5 13.5s29 24.5 40 46.5
s20.833 53 29.5 93h20z" />
    <glyph glyph-name="lslash" unicode="&#x142;" horiz-adv-x="252" 
d="M162 349l0.000976562 -253c0 -21.333 1.33301 -37 4 -47s7.5 -16.833 14.5 -20.5s18.833 -6.5 35.5 -8.5v-22c-32.667 4 -62.334 6 -89.001 6c-26 0 -55.667 -2 -89 -6v22c16.667 2 28.5 4.83301 35.5 8.5s11.833 10.5 14.5 20.5s4 25.667 4 47v218l-69 -40v30l69 41v229
c0 20.667 -1.33301 36 -4 46s-8 17 -16 21s-20.667 6.66699 -38 8v21c49.333 1.33301 87.333 4 114 8h14v-298l71 41v-30z" />
    <glyph glyph-name="Nacute" unicode="&#x143;" horiz-adv-x="548" 
d="M521 670v-22c-20 -2 -34.167 -5.16699 -42.5 -9.5s-14.166 -11.833 -17.499 -22.5s-5 -28.667 -5 -54v-572h-12l-319 590v-474c0 -25.333 1.83301 -43.5 5.5 -54.5s10.167 -18.5 19.5 -22.5s25.333 -7 48 -9v-22c-36 4 -64 6 -84 6h-3c-14 0 -40.333 -2 -79 -6v22
c20 2 34.167 5.16699 42.5 9.5s14.166 11.833 17.499 22.5s5 28.667 5 54v514c-5.33301 6.66699 -13 12.167 -23 16.5s-24 7.83301 -42 10.5v22c33.333 -3.33301 59 -5 77 -5c17.333 0 35 1 53 3l266 -491v385c0 25.333 -1.83301 43.5 -5.5 54.5s-10.167 18.667 -19.5 23
s-25.333 7.5 -48 9.5v22c30.667 -4 58.667 -6 84 -6h3c14 0 40.333 2 79 6zM319 842c8 10 14.8311 16.832 20.498 20.499s12.834 5.5 21.501 5.5s16.334 -3.33301 23.001 -10s10 -15 10 -25c0 -6.66699 -2 -13.167 -6 -19.5s-12.333 -13.166 -25 -20.499l-105 -59h-29z" />
    <glyph glyph-name="nacute" unicode="&#x144;" horiz-adv-x="449" 
d="M381 49c2.66699 -10 7.50195 -16.834 14.502 -20.501s18.833 -6.5 35.5 -8.5v-22c-32.667 4 -62.334 6 -89.001 6c-24.667 0 -53 -2 -85 -6v22c15.333 2 26.333 4.83301 33 8.5s11.167 10.334 13.5 20.001s3.5 25.5 3.5 47.5v265c0 30.667 -5.16699 52.667 -15.5 66
s-25.5 20 -45.5 20c-26.667 0 -49.167 -12 -67.5 -36s-27.5 -54.333 -27.5 -91v-224c0 -22 1.16699 -37.833 3.5 -47.5s6.83301 -16.334 13.5 -20.001s17.667 -6.5 33 -8.5v-22c-32 4 -60.333 6 -85 6c-26 0 -55.667 -2 -89 -6v22c16.667 2 28.5 4.83301 35.5 8.5
s11.833 10.5 14.5 20.5s4 25.667 4 47v274c0 20.667 -1.33301 36 -4 46s-8 17 -16 21s-20.667 6.66699 -38 8v21c49.333 1.33301 87.333 4 114 8h10v-68c12 22.667 27.667 40.334 47 53.001s41.333 19 66 19c37.333 0 66.166 -12.667 86.499 -38s30.5 -60.333 30.5 -105
v-239c0 -21.333 1.33301 -37 4 -47zM273.002 668.999c9.33301 15.333 20.667 22.999 34 22.999c9.33301 0 17.5 -3.33301 24.5 -10s10.5 -15 10.5 -25c0 -9.33301 -4 -17.666 -12 -24.999l-108 -98h-27z" />
    <glyph glyph-name="uni0145" unicode="&#x145;" horiz-adv-x="548" 
d="M521 670v-22c-20 -2 -34.167 -5.16699 -42.5 -9.5s-14.166 -11.833 -17.499 -22.5s-5 -28.667 -5 -54v-572h-12l-319 590v-474c0 -25.333 1.83301 -43.5 5.5 -54.5s10.167 -18.5 19.5 -22.5s25.333 -7 48 -9v-22c-36 4 -64 6 -84 6h-3c-14 0 -40.333 -2 -79 -6v22
c20 2 34.167 5.16699 42.5 9.5s14.166 11.833 17.499 22.5s5 28.667 5 54v514c-5.33301 6.66699 -13 12.167 -23 16.5s-24 7.83301 -42 10.5v22c33.333 -3.33301 59 -5 77 -5c17.333 0 35 1 53 3l266 -491v385c0 25.333 -1.83301 43.5 -5.5 54.5s-10.167 18.667 -19.5 23
s-25.333 7.5 -48 9.5v22c30.667 -4 58.667 -6 84 -6h3c14 0 40.333 2 79 6zM327.5 -49c9 -8.66699 13.5 -22.334 13.5 -41.001c0 -20.667 -6.5 -39.167 -19.5 -55.5s-25.5 -27.166 -37.5 -32.499l-11 14c25.333 16.667 40 37 44 61c-8 -4 -15.333 -6 -22 -6
c-11.333 0 -20.333 3.33301 -27 10s-10 15 -10 25c0 10.667 3.5 19.667 10.5 27s16.167 11 27.5 11c12 0 22.5 -4.33301 31.5 -13z" />
    <glyph glyph-name="uni0146" unicode="&#x146;" horiz-adv-x="449" 
d="M381 49c2.66699 -10 7.50195 -16.834 14.502 -20.501s18.833 -6.5 35.5 -8.5v-22c-32.667 4 -62.334 6 -89.001 6c-24.667 0 -53 -2 -85 -6v22c15.333 2 26.333 4.83301 33 8.5s11.167 10.334 13.5 20.001s3.5 25.5 3.5 47.5v265c0 30.667 -5.16699 52.667 -15.5 66
s-25.5 20 -45.5 20c-26.667 0 -49.167 -12 -67.5 -36s-27.5 -54.333 -27.5 -91v-224c0 -22 1.16699 -37.833 3.5 -47.5s6.83301 -16.334 13.5 -20.001s17.667 -6.5 33 -8.5v-22c-32 4 -60.333 6 -85 6c-26 0 -55.667 -2 -89 -6v22c16.667 2 28.5 4.83301 35.5 8.5
s11.833 10.5 14.5 20.5s4 25.667 4 47v274c0 20.667 -1.33301 36 -4 46s-8 17 -16 21s-20.667 6.66699 -38 8v21c49.333 1.33301 87.333 4 114 8h10v-68c12 22.667 27.667 40.334 47 53.001s41.333 19 66 19c37.333 0 66.166 -12.667 86.499 -38s30.5 -60.333 30.5 -105
v-239c0 -21.333 1.33301 -37 4 -47zM255.002 -50.001c8.66699 -8.66699 12.999 -22 12.999 -40c0 -20.667 -6.33301 -39 -19 -55s-25 -26.667 -37 -32l-11 14c25.333 15.333 40 35.333 44 60c-8 -4 -15.333 -6 -22 -6c-11.333 0 -20.166 3.33301 -26.499 10s-9.5 15 -9.5 25
c0 10.667 3.5 19.5 10.5 26.5s15.833 10.5 26.5 10.5c12 0 22.333 -4.33301 31 -13z" />
    <glyph glyph-name="Ncaron" unicode="&#x147;" horiz-adv-x="548" 
d="M521 670v-22c-20 -2 -34.167 -5.16699 -42.5 -9.5s-14.166 -11.833 -17.499 -22.5s-5 -28.667 -5 -54v-572h-12l-319 590v-474c0 -25.333 1.83301 -43.5 5.5 -54.5s10.167 -18.5 19.5 -22.5s25.333 -7 48 -9v-22c-36 4 -64 6 -84 6h-3c-14 0 -40.333 -2 -79 -6v22
c20 2 34.167 5.16699 42.5 9.5s14.166 11.833 17.499 22.5s5 28.667 5 54v514c-5.33301 6.66699 -13 12.167 -23 16.5s-24 7.83301 -42 10.5v22c33.333 -3.33301 59 -5 77 -5c17.333 0 35 1 53 3l266 -491v385c0 25.333 -1.83301 43.5 -5.5 54.5s-10.167 18.667 -19.5 23
s-25.333 7.5 -48 9.5v22c30.667 -4 58.667 -6 84 -6h3c14 0 40.333 2 79 6zM408 858l-107 -115h-41l-108 115h29l99 -60l99 60h29z" />
    <glyph glyph-name="ncaron" unicode="&#x148;" horiz-adv-x="449" 
d="M381 49c2.66699 -10 7.50195 -16.834 14.502 -20.501s18.833 -6.5 35.5 -8.5v-22c-32.667 4 -62.334 6 -89.001 6c-24.667 0 -53 -2 -85 -6v22c15.333 2 26.333 4.83301 33 8.5s11.167 10.334 13.5 20.001s3.5 25.5 3.5 47.5v265c0 30.667 -5.16699 52.667 -15.5 66
s-25.5 20 -45.5 20c-26.667 0 -49.167 -12 -67.5 -36s-27.5 -54.333 -27.5 -91v-224c0 -22 1.16699 -37.833 3.5 -47.5s6.83301 -16.334 13.5 -20.001s17.667 -6.5 33 -8.5v-22c-32 4 -60.333 6 -85 6c-26 0 -55.667 -2 -89 -6v22c16.667 2 28.5 4.83301 35.5 8.5
s11.833 10.5 14.5 20.5s4 25.667 4 47v274c0 20.667 -1.33301 36 -4 46s-8 17 -16 21s-20.667 6.66699 -38 8v21c49.333 1.33301 87.333 4 114 8h10v-68c12 22.667 27.667 40.334 47 53.001s41.333 19 66 19c37.333 0 66.166 -12.667 86.499 -38s30.5 -60.333 30.5 -105
v-239c0 -21.333 1.33301 -37 4 -47zM344.002 677.999l-96 -135h-36l-97 135h25l90 -75l89 75h25z" />
    <glyph glyph-name="Eng" unicode="&#x14a;" horiz-adv-x="548" 
d="M521 670v-22c-20 -2 -34.167 -5.16699 -42.5 -9.5s-14.166 -11.833 -17.499 -22.5s-5 -28.667 -5 -54v-481c0 -62 -13.333 -110.5 -40 -145.5s-64.667 -57.167 -114 -66.5v23c37.333 10 62.5 28.667 75.5 56s19.833 70 20.5 128l-273 504v-474
c0 -25.333 1.83301 -43.5 5.5 -54.5s10.167 -18.5 19.5 -22.5s25.333 -7 48 -9v-22c-37.333 4 -65.333 6 -84 6h-3c-14 0 -40.333 -2 -79 -6v22c20 2 34.167 5.16699 42.5 9.5s14.166 11.833 17.499 22.5s5 28.667 5 54v514c-5.33301 6.66699 -13 12.167 -23 16.5
s-24 7.83301 -42 10.5v22c33.333 -3.33301 59 -5 77 -5c17.333 0 35 1 53 3l266 -491v386c0 25.333 -1.83301 43.5 -5.5 54.5s-10.167 18.5 -19.5 22.5s-25.333 7 -48 9v22c37.333 -4 65.333 -6 84 -6h3c14 0 40.333 2 79 6z" />
    <glyph glyph-name="eng" unicode="&#x14b;" horiz-adv-x="434" 
d="M346.5 440c20.333 -25.333 30.501 -60.333 30.501 -105v-329c0 -66.667 -17 -114 -51 -142s-72.667 -42 -116 -42v22c28.667 0 52 11 70 33s27 53.667 27 95v389c0 30.667 -5.16699 52.667 -15.5 66s-25.5 20 -45.5 20c-26.667 0 -49.167 -12 -67.5 -36
s-27.5 -54.333 -27.5 -91v-224c0 -22 1.16699 -37.833 3.5 -47.5s6.83301 -16.334 13.5 -20.001s17.667 -6.5 33 -8.5v-22c-32 4 -60.333 6 -85 6c-26 0 -55.667 -2 -89 -6v22c16.667 2 28.5 4.83301 35.5 8.5s11.833 10.5 14.5 20.5s4 25.667 4 47v274
c0 20.667 -1.33301 36 -4 46s-8 17 -16 21s-20.667 6.66699 -38 8v21c49.333 1.33301 87.333 4 114 8h10v-68c12 22.667 27.667 40.334 47 53.001s41.333 19 66 19c37.333 0 66.166 -12.667 86.499 -38z" />
    <glyph glyph-name="Omacron" unicode="&#x14c;" horiz-adv-x="546" 
d="M155.5 30c-35 26.667 -62.833 65.834 -83.5 117.501s-31 113.834 -31 186.501s10.333 134.834 31 186.501s48.5 90.834 83.5 117.501s74.167 40 117.5 40s82.5 -13.333 117.5 -40s62.833 -65.834 83.5 -117.501s31 -113.834 31 -186.501s-10.333 -134.834 -31 -186.501
s-48.5 -90.834 -83.5 -117.501s-74.167 -40 -117.5 -40s-82.5 13.333 -117.5 40zM386 99.5c25.333 55.667 38 133.834 38 234.501s-12.667 178.834 -38 234.501s-63 83.5 -113 83.5s-87.667 -27.833 -113 -83.5s-38 -133.834 -38 -234.501s12.667 -178.834 38 -234.501
s63 -83.5 113 -83.5s87.667 27.833 113 83.5zM398 797v-36h-250v36h250z" />
    <glyph glyph-name="omacron" unicode="&#x14d;" horiz-adv-x="408" 
d="M118 19.5c-26 19.667 -46.5 48 -61.5 85s-22.5 80.167 -22.5 129.5s7.5 92.5 22.5 129.5s35.5 65.333 61.5 85s54.667 29.5 86 29.5s60 -9.83301 86 -29.5s46.5 -48 61.5 -85s22.5 -80.167 22.5 -129.5s-7.5 -92.5 -22.5 -129.5s-35.5 -65.333 -61.5 -85
s-54.667 -29.5 -86 -29.5s-60 9.83301 -86 29.5zM300 234c0 146 -32 219 -96 219s-96 -73 -96 -219s32 -219 96 -219s96 73 96 219zM314 595v-35h-221v35h221z" />
    <glyph glyph-name="Obreve" unicode="&#x14e;" horiz-adv-x="546" 
d="M155.5 30c-35 26.667 -62.833 65.834 -83.5 117.501s-31 113.834 -31 186.501s10.333 134.834 31 186.501s48.5 90.834 83.5 117.501s74.167 40 117.5 40s82.5 -13.333 117.5 -40s62.833 -65.834 83.5 -117.501s31 -113.834 31 -186.501s-10.333 -134.834 -31 -186.501
s-48.5 -90.834 -83.5 -117.501s-74.167 -40 -117.5 -40s-82.5 13.333 -117.5 40zM386 99.5c25.333 55.667 38 133.834 38 234.501s-12.667 178.834 -38 234.501s-63 83.5 -113 83.5s-87.667 -27.833 -113 -83.5s-38 -133.834 -38 -234.501s12.667 -178.834 38 -234.501
s63 -83.5 113 -83.5s87.667 27.833 113 83.5zM336.5 813.5c17 10.333 26.833 25.167 29.5 44.5h24c-3.33301 -39.333 -15.5 -68.833 -36.5 -88.5s-47.833 -29.5 -80.5 -29.5c-33.333 0 -60.333 9.83301 -81 29.5s-32.667 49.167 -36 88.5h24c2.66699 -20 12.5 -35 29.5 -45
s38.167 -15 63.5 -15s46.5 5.16699 63.5 15.5z" />
    <glyph glyph-name="obreve" unicode="&#x14f;" horiz-adv-x="408" 
d="M118 19.5c-26 19.667 -46.5 48 -61.5 85s-22.5 80.167 -22.5 129.5s7.5 92.5 22.5 129.5s35.5 65.333 61.5 85s54.667 29.5 86 29.5s60 -9.83301 86 -29.5s46.5 -48 61.5 -85s22.5 -80.167 22.5 -129.5s-7.5 -92.5 -22.5 -129.5s-35.5 -65.333 -61.5 -85
s-54.667 -29.5 -86 -29.5s-60 9.83301 -86 29.5zM300 234c0 146 -32 219 -96 219s-96 -73 -96 -219s32 -219 96 -219s96 73 96 219zM258 615c14.667 13.333 23.665 33.667 26.998 61h24c-2 -46.667 -12.167 -81.334 -30.5 -104.001s-43.166 -34 -74.499 -34
s-56.166 11.333 -74.499 34s-28.5 57.334 -30.5 104.001h24c3.33301 -28 12.333 -48.5 27 -61.5s32.667 -19.5 54 -19.5s39.333 6.66699 54 20z" />
    <glyph glyph-name="Ohungarumlaut" unicode="&#x150;" horiz-adv-x="546" 
d="M155.5 30c-35 26.667 -62.833 65.834 -83.5 117.501s-31 113.834 -31 186.501s10.333 134.834 31 186.501s48.5 90.834 83.5 117.501s74.167 40 117.5 40s82.5 -13.333 117.5 -40s62.833 -65.834 83.5 -117.501s31 -113.834 31 -186.501s-10.333 -134.834 -31 -186.501
s-48.5 -90.834 -83.5 -117.501s-74.167 -40 -117.5 -40s-82.5 13.333 -117.5 40zM386 99.5c25.333 55.667 38 133.834 38 234.501s-12.667 178.834 -38 234.501s-63 83.5 -113 83.5s-87.667 -27.833 -113 -83.5s-38 -133.834 -38 -234.501s12.667 -178.834 38 -234.501
s63 -83.5 113 -83.5s87.667 27.833 113 83.5zM219 837c10 21.333 23.001 32 39.001 32c9.33301 0 17.166 -2.83301 23.499 -8.5s9.5 -12.5 9.5 -20.5c0 -15.333 -6.33301 -28.333 -19 -39l-74 -67h-26zM375.001 845c10 16 22.333 23.999 37 23.999
c8.66699 0 16.167 -2.83301 22.5 -8.5s9.5 -12.5 9.5 -20.5c0 -15.333 -7.66699 -28.666 -23 -39.999l-89 -66h-25z" />
    <glyph glyph-name="ohungarumlaut" unicode="&#x151;" horiz-adv-x="408" 
d="M118 19.5c-26 19.667 -46.5 48 -61.5 85s-22.5 80.167 -22.5 129.5s7.5 92.5 22.5 129.5s35.5 65.333 61.5 85s54.667 29.5 86 29.5s60 -9.83301 86 -29.5s46.5 -48 61.5 -85s22.5 -80.167 22.5 -129.5s-7.5 -92.5 -22.5 -129.5s-35.5 -65.333 -61.5 -85
s-54.667 -29.5 -86 -29.5s-60 9.83301 -86 29.5zM300 234c0 146 -32 219 -96 219s-96 -73 -96 -219s32 -219 96 -219s96 73 96 219zM186 665c4 9.33301 9.00098 16.333 15.001 21s12.667 7 20 7c9.33301 0 17.166 -3 23.499 -9s9.5 -12.667 9.5 -20
c0 -10.667 -4 -20.667 -12 -30l-82 -100h-26zM310.001 666c4 8.66699 9.16699 15 15.5 19s12.833 6 19.5 6c10 0 17.833 -3 23.5 -9s8.5 -13 8.5 -21c0 -8.66699 -3 -16.667 -9 -24l-95 -103h-25z" />
    </font>
</defs>
</svg>
